  0
SECTION
  2
HEADER
  9
$ACADVER
  1
AC1012
  9
$DWGCODEPAGE
  3
iso8859-1
  9
$INSBASE
 10
0.0
 20
0.0
 30
0.0
  9
$EXTMIN
 10
-24.442829
 20
-24.442829
 30
0.0
  9
$EXTMAX
 10
6363.322676
 20
3432.021963
 30
0.0
  9
$LIMMIN
 10
0.0
 20
0.0
  9
$LIMMAX
 10
420.0
 20
297.0
  9
$ORTHOMODE
 70
     0
  9
$REGENMODE
 70
     1
  9
$FILLMODE
 70
     1
  9
$QTEXTMODE
 70
     0
  9
$MIRRTEXT
 70
     1
  9
$DRAGMODE
 70
     2
  9
$LTSCALE
 40
1.0
  9
$OSMODE
 70
     0
  9
$ATTMODE
 70
     1
  9
$TEXTSIZE
 40
100.0
  9
$TRACEWID
 40
1.0
  9
$TEXTSTYLE
  7
STANDARD
  9
$CLAYER
  8
COTAS
  9
$CELTYPE
  6
BYLAYER
  9
$CECOLOR
 62
   256
  9
$CELTSCALE
 40
1.0
  9
$DELOBJ
 70
     1
  9
$DISPSILH
 70
     0
  9
$DIMSCALE
 40
1.0
  9
$DIMASZ
 40
2.5
  9
$DIMEXO
 40
0.625
  9
$DIMDLI
 40
3.75
  9
$DIMRND
 40
0.0
  9
$DIMDLE
 40
0.0
  9
$DIMEXE
 40
1.25
  9
$DIMTP
 40
0.0
  9
$DIMTM
 40
0.0
  9
$DIMTXT
 40
20.0
  9
$DIMCEN
 40
2.5
  9
$DIMTSZ
 40
0.0
  9
$DIMTOL
 70
     0
  9
$DIMLIM
 70
     0
  9
$DIMTIH
 70
     0
  9
$DIMTOH
 70
     0
  9
$DIMSE1
 70
     0
  9
$DIMSE2
 70
     0
  9
$DIMTAD
 70
     1
  9
$DIMZIN
 70
     8
  9
$DIMBLK
  1

  9
$DIMASO
 70
     1
  9
$DIMSHO
 70
     1
  9
$DIMPOST
  1

  9
$DIMAPOST
  1

  9
$DIMALT
 70
     0
  9
$DIMALTD
 70
     4
  9
$DIMALTF
 40
0.0394
  9
$DIMLFAC
 40
1.0
  9
$DIMTOFL
 70
     1
  9
$DIMTVP
 40
0.0
  9
$DIMTIX
 70
     0
  9
$DIMSOXD
 70
     0
  9
$DIMSAH
 70
     0
  9
$DIMBLK1
  1

  9
$DIMBLK2
  1

  9
$DIMSTYLE
  2
STANDARD
  9
$DIMCLRD
 70
     0
  9
$DIMCLRE
 70
     0
  9
$DIMCLRT
 70
     0
  9
$DIMTFAC
 40
1.0
  9
$DIMGAP
 40
0.625
  9
$DIMJUST
 70
     0
  9
$DIMSD1
 70
     0
  9
$DIMSD2
 70
     0
  9
$DIMTOLJ
 70
     1
  9
$DIMTZIN
 70
     0
  9
$DIMALTZ
 70
     0
  9
$DIMALTTZ
 70
     0
  9
$DIMFIT
 70
     3
  9
$DIMUPT
 70
     0
  9
$DIMUNIT
 70
     8
  9
$DIMDEC
 70
     4
  9
$DIMTDEC
 70
     4
  9
$DIMALTU
 70
     8
  9
$DIMALTTD
 70
     4
  9
$DIMTXSTY
  7
STANDARD
  9
$DIMAUNIT
 70
     0
  9
$LUNITS
 70
     2
  9
$LUPREC
 70
     2
  9
$SKETCHINC
 40
1.0
  9
$FILLETRAD
 40
10.0
  9
$AUNITS
 70
     0
  9
$AUPREC
 70
     0
  9
$MENU
  1
.
  9
$ELEVATION
 40
0.0
  9
$PELEVATION
 40
0.0
  9
$THICKNESS
 40
0.0
  9
$LIMCHECK
 70
     0
  9
$BLIPMODE
 70
     0
  9
$CHAMFERA
 40
0.0
  9
$CHAMFERB
 40
0.0
  9
$CHAMFERC
 40
20.0
  9
$CHAMFERD
 40
0.0
  9
$SKPOLY
 70
     0
  9
$TDCREATE
 40
2452616.848181770
  9
$TDUPDATE
 40
2452660.367853471
  9
$TDINDWG
 40
0.2323941319
  9
$TDUSRTIMER
 40
0.2323941319
  9
$USRTIMER
 70
     1
  9
$ANGBASE
 50
0.0
  9
$ANGDIR
 70
     0
  9
$PDMODE
 70
     3
  9
$PDSIZE
 40
-2.0
  9
$PLINEWID
 40
0.0
  9
$COORDS
 70
     2
  9
$SPLFRAME
 70
     0
  9
$SPLINETYPE
 70
     6
  9
$SPLINESEGS
 70
     8
  9
$ATTDIA
 70
     0
  9
$ATTREQ
 70
     1
  9
$HANDLING
 70
     1
  9
$HANDSEED
  5
39E1
  9
$SURFTAB1
 70
     6
  9
$SURFTAB2
 70
     6
  9
$SURFTYPE
 70
     6
  9
$SURFU
 70
     6
  9
$SURFV
 70
     6
  9
$UCSNAME
  2

  9
$UCSORG
 10
0.0
 20
0.0
 30
0.0
  9
$UCSXDIR
 10
1.0
 20
0.0
 30
0.0
  9
$UCSYDIR
 10
0.0
 20
1.0
 30
0.0
  9
$PUCSNAME
  2

  9
$PUCSORG
 10
0.0
 20
0.0
 30
0.0
  9
$PUCSXDIR
 10
1.0
 20
0.0
 30
0.0
  9
$PUCSYDIR
 10
0.0
 20
1.0
 30
0.0
  9
$USERI1
 70
     0
  9
$USERI2
 70
     0
  9
$USERI3
 70
     0
  9
$USERI4
 70
     0
  9
$USERI5
 70
     0
  9
$USERR1
 40
0.0
  9
$USERR2
 40
0.0
  9
$USERR3
 40
0.0
  9
$USERR4
 40
0.0
  9
$USERR5
 40
0.0
  9
$WORLDVIEW
 70
     1
  9
$SHADEDGE
 70
     3
  9
$SHADEDIF
 70
    70
  9
$TILEMODE
 70
     1
  9
$MAXACTVP
 70
    48
  9
$PINSBASE
 10
0.0
 20
0.0
 30
0.0
  9
$PLIMCHECK
 70
     0
  9
$PEXTMIN
 10
1.000000E+20
 20
1.000000E+20
 30
1.000000E+20
  9
$PEXTMAX
 10
-1.000000E+20
 20
-1.000000E+20
 30
-1.000000E+20
  9
$PLIMMIN
 10
0.0
 20
0.0
  9
$PLIMMAX
 10
420.0
 20
297.0
  9
$UNITMODE
 70
     0
  9
$VISRETAIN
 70
     1
  9
$PLINEGEN
 70
     0
  9
$PSLTSCALE
 70
     1
  9
$TREEDEPTH
 70
  3020
  9
$PICKSTYLE
 70
     1
  9
$CMLSTYLE
  2
STANDARD
  9
$CMLJUST
 70
     0
  9
$CMLSCALE
 40
20.0
  9
$SAVEIMAGES
 70
     1
  0
ENDSEC
  0
SECTION
  2
CLASSES
  0
CLASS
  1
LWPOLYLINE
  2
AcDbPolyline
  3
"AutoCAD"
 90
    32768
280
     0
281
     1
  0
CLASS
  1
DICTIONARYVAR
  2
AcDbDictionaryVar
  3
"AutoCAD"
 90
    32768
280
     0
281
     0
  0
CLASS
  1
HATCH
  2
AcDbHatch
  3
"ACAD_SEDONA"
 90
    32768
280
     0
281
     1
  0
CLASS
  1
DxfZombieEntity
  2
AcDbDxfZombieEntity
  3
AutoCAD
 90
        0
280
     1
281
     1
  0
CLASS
  1
DxfZombieObject
  2
AcDbDxfZombieObject
  3
AutoCAD
 90
        0
280
     1
281
     0
  0
ENDSEC
  0
SECTION
  2
TABLES
  0
TABLE
  2
VPORT
  5
8
100
AcDbSymbolTable
 70
     7
  0
VPORT
  5
39E0
100
AcDbSymbolTableRecord
100
AcDbViewportTableRecord
  2
*ACTIVE
 70
     0
 10
0.0
 20
0.0
 11
1.0
 21
1.0
 12
524.427386
 22
426.775741
 13
0.0
 23
0.0
 14
10.0
 24
10.0
 15
10.0
 25
10.0
 16
0.0
 26
0.0
 36
1.0
 17
0.0
 27
0.0
 37
0.0
 40
954.641475
 41
2.455414
 42
50.0
 43
0.0
 44
0.0
 50
0.0
 51
0.0
 71
     0
 72
  1000
 73
     1
 74
     1
 75
     0
 76
     0
 77
     0
 78
     0
  0
ENDTAB
  0
TABLE
  2
LTYPE
  5
5
100
AcDbSymbolTable
 70
     3
  0
LTYPE
  5
12
100
AcDbSymbolTableRecord
100
AcDbLinetypeTableRecord
  2
BYBLOCK
 70
    64
  3

 72
    65
 73
     0
 40
0.0
  0
LTYPE
  5
13
100
AcDbSymbolTableRecord
100
AcDbLinetypeTableRecord
  2
BYLAYER
 70
    64
  3

 72
    65
 73
     0
 40
0.0
  0
LTYPE
  5
14
100
AcDbSymbolTableRecord
100
AcDbLinetypeTableRecord
  2
CONTINUOUS
 70
    64
  3
Solid line
 72
    65
 73
     0
 40
0.0
  0
LTYPE
  5
3FD
100
AcDbSymbolTableRecord
100
AcDbLinetypeTableRecord
  2
ACAD_ISO02W100
 70
    64
  3
 ISO trazo __ __ __ __ __ __ __ __ __ __ __ __ 
 72
    65
 73
     2
 40
15.0
 49
12.0
 74
     0
 49
-3.0
 74
     0
  0
LTYPE
  5
3FE
100
AcDbSymbolTableRecord
100
AcDbLinetypeTableRecord
  2
ACAD_ISO07W100
 70
    64
  3
 ISO punto. . . . . . . . . . . . . . . . . . .
 72
    65
 73
     2
 40
3.5
 49
0.5
 74
     0
 49
-3.0
 74
     0
  0
ENDTAB
  0
TABLE
  2
LAYER
  5
2
100
AcDbSymbolTable
 70
    12
  0
LAYER
  5
E
100
AcDbSymbolTableRecord
100
AcDbLayerTableRecord
  2
0
 70
    64
 62
     7
  6
CONTINUOUS
  0
LAYER
  5
20
100
AcDbSymbolTableRecord
100
AcDbLayerTableRecord
  2
PUNTOS
 70
    64
 62
     7
  6
CONTINUOUS
  0
LAYER
  5
56
100
AcDbSymbolTableRecord
100
AcDbLayerTableRecord
  2
CUADRICULA
 70
    64
 62
     7
  6
CONTINUOUS
  0
LAYER
  5
80
100
AcDbSymbolTableRecord
100
AcDbLayerTableRecord
  2
VELA
 70
    64
 62
     6
  6
CONTINUOUS
  0
LAYER
  5
C9
100
AcDbSymbolTableRecord
100
AcDbLayerTableRecord
  2
A4
 70
    65
 62
    -3
  6
CONTINUOUS
  0
LAYER
  5
CA
100
AcDbSymbolTableRecord
100
AcDbLayerTableRecord
  2
VARILLAS
 70
    65
 62
     5
  6
CONTINUOUS
  0
LAYER
  5
D7
100
AcDbSymbolTableRecord
100
AcDbLayerTableRecord
  2
BRIDAS
 70
    65
 62
     3
  6
CONTINUOUS
  0
LAYER
  5
E6
100
AcDbSymbolTableRecord
100
AcDbLayerTableRecord
  2
DEFPOINTS
 70
    65
 62
     7
  6
CONTINUOUS
  0
LAYER
  5
3B9
100
AcDbSymbolTableRecord
100
AcDbLayerTableRecord
  2
VELACOTAS
 70
    65
 62
     8
  6
CONTINUOUS
  0
LAYER
  5
546
100
AcDbSymbolTableRecord
100
AcDbLayerTableRecord
  2
VELAMARGEN
 70
    64
 62
     6
  6
ACAD_ISO02W100
  0
LAYER
  5
772
100
AcDbSymbolTableRecord
100
AcDbLayerTableRecord
  2
VELACOLORES
 70
    65
 62
     7
  6
CONTINUOUS
  0
LAYER
  5
1340
100
AcDbSymbolTableRecord
100
AcDbLayerTableRecord
  2
COTAS
 70
    64
 62
   252
  6
CONTINUOUS
  0
ENDTAB
  0
TABLE
  2
STYLE
  5
3
100
AcDbSymbolTable
 70
     2
  0
STYLE
  5
F
100
AcDbSymbolTableRecord
100
AcDbTextStyleTableRecord
  2
STANDARD
 70
    64
 40
0.0
 41
1.0
 50
0.0
 71
     0
 42
100.0
  3
txt
  4

  0
STYLE
  5
3FC
100
AcDbSymbolTableRecord
100
AcDbTextStyleTableRecord
  2

 70
    65
 40
0.0
 41
1.0
 50
0.0
 71
     0
 42
100.0
  3
ltypeshp.shx
  4

  0
ENDTAB
  0
TABLE
  2
VIEW
  5
6
100
AcDbSymbolTable
 70
     0
  0
ENDTAB
  0
TABLE
  2
UCS
  5
7
100
AcDbSymbolTable
 70
     0
  0
ENDTAB
  0
TABLE
  2
APPID
  5
9
100
AcDbSymbolTable
 70
     1
  0
APPID
  5
10
100
AcDbSymbolTableRecord
100
AcDbRegAppTableRecord
  2
ACAD
 70
    64
  0
ENDTAB
  0
TABLE
  2
DIMSTYLE
  5
A
100
AcDbSymbolTable
 70
     1
  0
DIMSTYLE
105
1D
102
{ACAD_REACTORS
330
1344
330
1345
330
2942
330
2941
330
29F3
330
28BF
330
28BB
330
28D5
330
28BC
330
28DE
330
28CD
330
289A
330
2899
102
}
100
AcDbSymbolTableRecord
100
AcDbDimStyleTableRecord
  2
STANDARD
 70
    64
  3

  4

  5

  6

  7

 40
1.0
 41
2.5
 42
0.625
 43
3.75
 44
1.25
 45
0.0
 46
0.0
 47
0.0
 48
0.0
140
20.0
141
2.5
142
0.0
143
0.0394
144
1.0
145
0.0
146
1.0
147
0.625
 71
     0
 72
     0
 73
     0
 74
     0
 75
     0
 76
     0
 77
     1
 78
     8
170
     0
171
     4
172
     1
173
     0
174
     0
175
     0
176
     0
177
     0
178
     0
270
     8
271
     4
272
     4
273
     8
274
     4
340
F
275
     0
280
     0
281
     0
282
     0
283
     1
284
     0
285
     0
286
     0
287
     3
288
     0
  0
ENDTAB
  0
TABLE
  2
BLOCK_RECORD
  5
1
100
AcDbSymbolTable
 70
    34
  0
BLOCK_RECORD
  5
18
100
AcDbSymbolTableRecord
100
AcDbBlockTableRecord
  2
*MODEL_SPACE
  0
BLOCK_RECORD
  5
15
100
AcDbSymbolTableRecord
100
AcDbBlockTableRecord
  2
*PAPER_SPACE
  0
BLOCK_RECORD
  5
343
100
AcDbSymbolTableRecord
100
AcDbBlockTableRecord
  2
A4
  0
BLOCK_RECORD
  5
1328
100
AcDbSymbolTableRecord
100
AcDbBlockTableRecord
  2
*D1
  0
BLOCK_RECORD
  5
1334
100
AcDbSymbolTableRecord
100
AcDbBlockTableRecord
  2
*D2
  0
BLOCK_RECORD
  5
1341
100
AcDbSymbolTableRecord
100
AcDbBlockTableRecord
  2
A0
  0
BLOCK_RECORD
  5
2E42
100
AcDbSymbolTableRecord
100
AcDbBlockTableRecord
  2
*D4
  0
BLOCK_RECORD
  5
2E4E
100
AcDbSymbolTableRecord
100
AcDbBlockTableRecord
  2
*D5
  0
BLOCK_RECORD
  5
2E5A
100
AcDbSymbolTableRecord
100
AcDbBlockTableRecord
  2
*D6
  0
BLOCK_RECORD
  5
2E66
100
AcDbSymbolTableRecord
100
AcDbBlockTableRecord
  2
*D7
  0
BLOCK_RECORD
  5
2E72
100
AcDbSymbolTableRecord
100
AcDbBlockTableRecord
  2
*D8
  0
BLOCK_RECORD
  5
2E7E
100
AcDbSymbolTableRecord
100
AcDbBlockTableRecord
  2
*D9
  0
BLOCK_RECORD
  5
2E8A
100
AcDbSymbolTableRecord
100
AcDbBlockTableRecord
  2
*D10
  0
BLOCK_RECORD
  5
2E96
100
AcDbSymbolTableRecord
100
AcDbBlockTableRecord
  2
*D11
  0
BLOCK_RECORD
  5
2EA2
100
AcDbSymbolTableRecord
100
AcDbBlockTableRecord
  2
*D12
  0
BLOCK_RECORD
  5
2EAE
100
AcDbSymbolTableRecord
100
AcDbBlockTableRecord
  2
*D13
  0
BLOCK_RECORD
  5
2EBA
100
AcDbSymbolTableRecord
100
AcDbBlockTableRecord
  2
*D14
  0
BLOCK_RECORD
  5
2EC6
100
AcDbSymbolTableRecord
100
AcDbBlockTableRecord
  2
*D15
  0
BLOCK_RECORD
  5
2ED2
100
AcDbSymbolTableRecord
100
AcDbBlockTableRecord
  2
*D16
  0
BLOCK_RECORD
  5
2EDE
100
AcDbSymbolTableRecord
100
AcDbBlockTableRecord
  2
*D17
  0
BLOCK_RECORD
  5
2EEA
100
AcDbSymbolTableRecord
100
AcDbBlockTableRecord
  2
*D18
  0
BLOCK_RECORD
  5
2EF6
100
AcDbSymbolTableRecord
100
AcDbBlockTableRecord
  2
*D19
  0
BLOCK_RECORD
  5
2F02
100
AcDbSymbolTableRecord
100
AcDbBlockTableRecord
  2
*D20
  0
BLOCK_RECORD
  5
2F0E
100
AcDbSymbolTableRecord
100
AcDbBlockTableRecord
  2
*D21
  0
BLOCK_RECORD
  5
2F1A
100
AcDbSymbolTableRecord
100
AcDbBlockTableRecord
  2
*D22
  0
BLOCK_RECORD
  5
2F26
100
AcDbSymbolTableRecord
100
AcDbBlockTableRecord
  2
*D23
  0
BLOCK_RECORD
  5
2F32
100
AcDbSymbolTableRecord
100
AcDbBlockTableRecord
  2
*D24
  0
BLOCK_RECORD
  5
3975
100
AcDbSymbolTableRecord
100
AcDbBlockTableRecord
  2
*D26
  0
BLOCK_RECORD
  5
3981
100
AcDbSymbolTableRecord
100
AcDbBlockTableRecord
  2
*D27
  0
BLOCK_RECORD
  5
398D
100
AcDbSymbolTableRecord
100
AcDbBlockTableRecord
  2
*D28
  0
BLOCK_RECORD
  5
3999
100
AcDbSymbolTableRecord
100
AcDbBlockTableRecord
  2
*D29
  0
BLOCK_RECORD
  5
39A5
100
AcDbSymbolTableRecord
100
AcDbBlockTableRecord
  2
*D30
  0
BLOCK_RECORD
  5
39B1
100
AcDbSymbolTableRecord
100
AcDbBlockTableRecord
  2
*D31
  0
BLOCK_RECORD
  5
39BD
100
AcDbSymbolTableRecord
100
AcDbBlockTableRecord
  2
*D32
  0
BLOCK_RECORD
  5
39CA
100
AcDbSymbolTableRecord
100
AcDbBlockTableRecord
  2
*D33
  0
ENDTAB
  0
ENDSEC
  0
SECTION
  2
BLOCKS
  0
BLOCK
  5
19
100
AcDbEntity
  8
0
100
AcDbBlockBegin
  2
*MODEL_SPACE
 70
    64
 10
0.0
 20
0.0
 30
0.0
  3
*MODEL_SPACE
  1

  0
ENDBLK
  5
1A
100
AcDbEntity
  8
0
100
AcDbBlockEnd
  0
BLOCK
  5
16
100
AcDbEntity
 67
     1
  8
0
100
AcDbBlockBegin
  2
*PAPER_SPACE
 70
    64
 10
0.0
 20
0.0
 30
0.0
  3
*PAPER_SPACE
  1

  0
ENDBLK
  5
17
100
AcDbEntity
 67
     1
  8
0
100
AcDbBlockEnd
  0
BLOCK
  5
344
100
AcDbEntity
  8
0
100
AcDbBlockBegin
  2
A4
 70
    64
 10
0.0
 20
0.0
 30
0.0
  3
A4
  1

  0
LINE
  5
345
100
AcDbEntity
  8
A4
 62
     4
100
AcDbLine
 10
0.0
 20
209.0
 30
0.0
 11
296.0
 21
209.0
 31
0.0
  0
LINE
  5
346
100
AcDbEntity
  8
A4
 62
     4
100
AcDbLine
 10
0.0
 20
0.0
 30
0.0
 11
296.0
 21
0.0
 31
0.0
  0
LINE
  5
347
100
AcDbEntity
  8
A4
 62
     4
100
AcDbLine
 10
0.0
 20
209.0
 30
0.0
 11
0.0
 21
0.0
 31
0.0
  0
LINE
  5
348
100
AcDbEntity
  8
A4
 62
     4
100
AcDbLine
 10
296.0
 20
209.0
 30
0.0
 11
296.0
 21
0.0
 31
0.0
  0
ENDBLK
  5
349
100
AcDbEntity
  8
0
100
AcDbBlockEnd
  0
BLOCK
  5
1332
100
AcDbEntity
  8
0
100
AcDbBlockBegin
  2
*D1
 70
    65
 10
0.0
 20
0.0
 30
0.0
  3
*D1
  1

  0
LINE
  5
1329
100
AcDbEntity
  8
0
  6
BYBLOCK
 62
     0
100
AcDbLine
 10
-1894.488931
 20
3634.427301
 30
0.0
 11
-1894.488931
 21
3745.441827
 31
0.0
  0
LINE
  5
132A
100
AcDbEntity
  8
0
  6
BYBLOCK
 62
     0
100
AcDbLine
 10
-1314.488931
 20
3634.427301
 30
0.0
 11
-1314.488931
 21
3745.441827
 31
0.0
  0
LINE
  5
132B
100
AcDbEntity
  8
0
  6
BYBLOCK
 62
     0
100
AcDbLine
 10
-1891.988931
 20
3744.191827
 30
0.0
 11
-1316.988931
 21
3744.191827
 31
0.0
  0
SOLID
  5
132C
100
AcDbEntity
  8
0
  6
BYBLOCK
 62
     0
100
AcDbTrace
 10
-1891.988931
 20
3744.608494
 30
0.0
 11
-1891.988931
 21
3743.77516
 31
0.0
 12
-1894.488931
 22
3744.191827
 32
0.0
 13
-1894.488931
 23
3744.191827
 33
0.0
  0
SOLID
  5
132D
100
AcDbEntity
  8
0
  6
BYBLOCK
 62
     0
100
AcDbTrace
 10
-1316.988931
 20
3744.608494
 30
0.0
 11
-1316.988931
 21
3743.77516
 31
0.0
 12
-1314.488931
 22
3744.191827
 32
0.0
 13
-1314.488931
 23
3744.191827
 33
0.0
  0
MTEXT
  5
132E
100
AcDbEntity
  8
0
  6
BYBLOCK
 62
     0
100
AcDbMText
 10
-1604.488931
 20
3757.316827
 30
0.0
 40
25.0
 41
0.0
 71
     5
 72
     1
  1
\A1;580
  0
POINT
  5
132F
100
AcDbEntity
  8
DEFPOINTS
  6
BYBLOCK
 62
     0
100
AcDbPoint
 10
-1894.488931
 20
3633.802301
 30
0.0
  0
POINT
  5
1330
100
AcDbEntity
  8
DEFPOINTS
  6
BYBLOCK
 62
     0
100
AcDbPoint
 10
-1314.488931
 20
3633.802301
 30
0.0
  0
POINT
  5
1331
100
AcDbEntity
  8
DEFPOINTS
  6
BYBLOCK
 62
     0
100
AcDbPoint
 10
-1314.488931
 20
3744.191827
 30
0.0
  0
ENDBLK
  5
1333
100
AcDbEntity
  8
0
100
AcDbBlockEnd
  0
BLOCK
  5
133E
100
AcDbEntity
  8
0
100
AcDbBlockBegin
  2
*D2
 70
    65
 10
0.0
 20
0.0
 30
0.0
  3
*D2
  1

  0
LINE
  5
1335
100
AcDbEntity
  8
0
  6
BYBLOCK
 62
     0
100
AcDbLine
 10
-1895.113931
 20
3633.802301
 30
0.0
 11
-2009.122264
 21
3633.802301
 31
0.0
  0
LINE
  5
1336
100
AcDbEntity
  8
0
  6
BYBLOCK
 62
     0
100
AcDbLine
 10
-1895.113931
 20
2830.802301
 30
0.0
 11
-2009.122264
 21
2830.802301
 31
0.0
  0
LINE
  5
1337
100
AcDbEntity
  8
0
  6
BYBLOCK
 62
     0
100
AcDbLine
 10
-2007.872264
 20
3631.302301
 30
0.0
 11
-2007.872264
 21
2833.302301
 31
0.0
  0
SOLID
  5
1338
100
AcDbEntity
  8
0
  6
BYBLOCK
 62
     0
100
AcDbTrace
 10
-2008.288931
 20
3631.302301
 30
0.0
 11
-2007.455597
 21
3631.302301
 31
0.0
 12
-2007.872264
 22
3633.802301
 32
0.0
 13
-2007.872264
 23
3633.802301
 33
0.0
  0
SOLID
  5
1339
100
AcDbEntity
  8
0
  6
BYBLOCK
 62
     0
100
AcDbTrace
 10
-2008.288931
 20
2833.302301
 30
0.0
 11
-2007.455597
 21
2833.302301
 31
0.0
 12
-2007.872264
 22
2830.802301
 32
0.0
 13
-2007.872264
 23
2830.802301
 33
0.0
  0
MTEXT
  5
133A
100
AcDbEntity
  8
0
  6
BYBLOCK
 62
     0
100
AcDbMText
 10
-2020.997264
 20
3232.302301
 30
0.0
 40
25.0
 41
0.0
 71
     5
 72
     1
  1
\A1;803
 11
0.0
 21
1.0
 31
0.0
  0
POINT
  5
133B
100
AcDbEntity
  8
DEFPOINTS
  6
BYBLOCK
 62
     0
100
AcDbPoint
 10
-1894.488931
 20
3633.802301
 30
0.0
  0
POINT
  5
133C
100
AcDbEntity
  8
DEFPOINTS
  6
BYBLOCK
 62
     0
100
AcDbPoint
 10
-1894.488931
 20
2830.802301
 30
0.0
  0
POINT
  5
133D
100
AcDbEntity
  8
DEFPOINTS
  6
BYBLOCK
 62
     0
100
AcDbPoint
 10
-2007.872264
 20
2830.802301
 30
0.0
  0
ENDBLK
  5
133F
100
AcDbEntity
  8
0
100
AcDbBlockEnd
  0
BLOCK
  5
1346
100
AcDbEntity
  8
0
100
AcDbBlockBegin
  2
A0
 70
    64
 10
0.0
 20
0.0
 30
0.0
  3
A0
  1

  0
POLYLINE
  5
1342
100
AcDbEntity
  8
COTAS
  6
ACAD_ISO07W100
100
AcDb2dPolyline
 66
     1
 10
0.0
 20
0.0
 30
0.0
 70
     1
  0
VERTEX
  5
389F
100
AcDbEntity
  8
COTAS
  6
ACAD_ISO07W100
100
AcDbVertex
100
AcDb2dVertex
 10
209.826072
 20
49.714352
 30
0.0
  0
VERTEX
  5
38A0
100
AcDbEntity
  8
COTAS
  6
ACAD_ISO07W100
100
AcDbVertex
100
AcDb2dVertex
 10
209.826072
 20
852.714352
 30
0.0
  0
VERTEX
  5
38A1
100
AcDbEntity
  8
COTAS
  6
ACAD_ISO07W100
100
AcDbVertex
100
AcDb2dVertex
 10
789.826072
 20
852.714352
 30
0.0
  0
VERTEX
  5
38A2
100
AcDbEntity
  8
COTAS
  6
ACAD_ISO07W100
100
AcDbVertex
100
AcDb2dVertex
 10
789.826072
 20
49.714352
 30
0.0
  0
SEQEND
  5
38A3
100
AcDbEntity
  8
COTAS
  6
ACAD_ISO07W100
  0
POLYLINE
  5
1343
100
AcDbEntity
  8
COTAS
  6
ACAD_ISO07W100
100
AcDb2dPolyline
 66
     1
 10
0.0
 20
0.0
 30
0.0
 70
     1
  0
VERTEX
  5
38A4
100
AcDbEntity
  8
COTAS
  6
ACAD_ISO07W100
100
AcDbVertex
100
AcDb2dVertex
 10
837.963939
 20
52.374198
 30
0.0
  0
VERTEX
  5
38A5
100
AcDbEntity
  8
COTAS
  6
ACAD_ISO07W100
100
AcDbVertex
100
AcDb2dVertex
 10
837.963939
 20
855.374198
 30
0.0
  0
VERTEX
  5
38A6
100
AcDbEntity
  8
COTAS
  6
ACAD_ISO07W100
100
AcDbVertex
100
AcDb2dVertex
 10
1417.963939
 20
855.374198
 30
0.0
  0
VERTEX
  5
38A7
100
AcDbEntity
  8
COTAS
  6
ACAD_ISO07W100
100
AcDbVertex
100
AcDb2dVertex
 10
1417.963939
 20
52.374198
 30
0.0
  0
SEQEND
  5
38A8
100
AcDbEntity
  8
COTAS
  6
ACAD_ISO07W100
  0
DIMENSION
  5
1344
100
AcDbEntity
  8
COTAS
  6
ACAD_ISO07W100
100
AcDbDimension
  2
*D1
 10
789.826072
 20
963.103879
 30
0.0
 11
499.826072
 21
976.228879
 31
0.0
 12
2104.315003
 22
-2781.087949
 32
0.0
 70
    32
  3
STANDARD
100
AcDbAlignedDimension
 13
209.826072
 23
852.714352
 33
0.0
 14
789.826072
 24
852.714352
 34
0.0
100
AcDbRotatedDimension
1001
ACAD
1000
DSTYLE
1002
{
1002
}
  0
DIMENSION
  5
1345
100
AcDbEntity
  8
COTAS
  6
ACAD_ISO07W100
100
AcDbDimension
  2
*D2
 10
96.442739
 20
49.714352
 30
0.0
 11
83.317739
 21
451.214352
 31
0.0
 12
2104.315003
 22
-2781.087949
 32
0.0
 70
    32
  3
STANDARD
100
AcDbAlignedDimension
 13
209.826072
 23
852.714352
 33
0.0
 14
209.826072
 24
49.714352
 34
0.0
 50
90.0
100
AcDbRotatedDimension
  0
ENDBLK
  5
1347
100
AcDbEntity
  8
0
100
AcDbBlockEnd
  0
BLOCK
  5
2E43
100
AcDbEntity
  8
0
100
AcDbBlockBegin
  2
*D4
 70
    65
 10
0.0
 20
0.0
 30
0.0
  3
*D4
  1

  0
LINE
  5
2E44
100
AcDbEntity
  8
0
  6
BYBLOCK
 62
     0
100
AcDbLine
 10
2844.380346
 20
978.557279
 30
0.0
 11
2874.344071
 21
896.540846
 31
0.0
  0
LINE
  5
2E45
100
AcDbEntity
  8
0
  6
BYBLOCK
 62
     0
100
AcDbLine
 10
2333.41256
 20
791.8813
 30
0.0
 11
2363.376284
 21
709.864867
 31
0.0
  0
LINE
  5
2E46
100
AcDbEntity
  8
0
  6
BYBLOCK
 62
     0
100
AcDbLine
 10
2871.56693
 20
896.857058
 30
0.0
 11
2365.295539
 21
711.896852
 31
0.0
  0
SOLID
  5
2E47
100
AcDbEntity
  8
0
  6
BYBLOCK
 62
     0
100
AcDbTrace
 10
2871.423949
 20
897.248425
 30
0.0
 11
2871.709911
 21
896.465692
 31
0.0
 12
2873.915128
 22
897.714944
 32
0.0
 13
2873.915128
 23
897.714944
 33
0.0
  0
SOLID
  5
2E48
100
AcDbEntity
  8
0
  6
BYBLOCK
 62
     0
100
AcDbTrace
 10
2365.152558
 20
712.288218
 30
0.0
 11
2365.43852
 21
711.505485
 31
0.0
 12
2362.947341
 22
711.038966
 32
0.0
 13
2362.947341
 23
711.038966
 33
0.0
  0
MTEXT
  5
2E49
100
AcDbEntity
  8
0
  6
BYBLOCK
 62
     0
100
AcDbMText
 10
2614.785219
 20
814.356795
 30
0.0
 40
20.0
 41
0.0
 71
     5
 72
     1
  1
\A1;544
 11
0.939279
 21
0.343154
 31
0.0
  0
POINT
  5
2E4A
100
AcDbEntity
  8
DEFPOINTS
  6
BYBLOCK
 62
     0
100
AcDbPoint
 10
2844.165875
 20
979.144328
 30
0.0
  0
POINT
  5
2E4B
100
AcDbEntity
  8
DEFPOINTS
  6
BYBLOCK
 62
     0
100
AcDbPoint
 10
2333.198088
 20
792.468349
 30
0.0
  0
POINT
  5
2E4C
100
AcDbEntity
  8
DEFPOINTS
  6
BYBLOCK
 62
     0
100
AcDbPoint
 10
2362.947341
 20
711.038966
 30
0.0
  0
ENDBLK
  5
2E4D
100
AcDbEntity
  8
0
100
AcDbBlockEnd
  0
BLOCK
  5
2E4F
100
AcDbEntity
  8
0
100
AcDbBlockBegin
  2
*D5
 70
    65
 10
0.0
 20
0.0
 30
0.0
  3
*D5
  1

  0
LINE
  5
2E50
100
AcDbEntity
  8
0
  6
BYBLOCK
 62
     0
100
AcDbLine
 10
3247.498003
 20
803.293298
 30
0.0
 11
3275.12276
 21
866.408606
 31
0.0
  0
LINE
  5
2E51
100
AcDbEntity
  8
0
  6
BYBLOCK
 62
     0
100
AcDbLine
 10
2844.416477
 20
979.716887
 30
0.0
 11
2872.041233
 21
1042.832195
 31
0.0
  0
LINE
  5
2E52
100
AcDbEntity
  8
0
  6
BYBLOCK
 62
     0
100
AcDbLine
 10
3272.331321
 20
866.265895
 30
0.0
 11
2873.830266
 21
1040.68467
 31
0.0
  0
SOLID
  5
2E53
100
AcDbEntity
  8
0
  6
BYBLOCK
 62
     0
100
AcDbTrace
 10
3272.498389
 20
866.647601
 30
0.0
 11
3272.164253
 21
865.884189
 31
0.0
 12
3274.621557
 22
865.263488
 32
0.0
 13
3274.621557
 23
865.263488
 33
0.0
  0
SOLID
  5
2E54
100
AcDbEntity
  8
0
  6
BYBLOCK
 62
     0
100
AcDbTrace
 10
2873.997334
 20
1041.066376
 30
0.0
 11
2873.663198
 21
1040.302964
 31
0.0
 12
2871.54003
 22
1041.687077
 32
0.0
 13
2871.54003
 23
1041.687077
 33
0.0
  0
MTEXT
  5
2E55
100
AcDbEntity
  8
0
  6
BYBLOCK
 62
     0
100
AcDbMText
 10
3077.341022
 20
963.208785
 30
0.0
 40
20.0
 41
0.0
 71
     5
 72
     1
  1
\A1;440
 11
0.916094
 21
-0.400963
 31
0.0
  0
POINT
  5
2E56
100
AcDbEntity
  8
DEFPOINTS
  6
BYBLOCK
 62
     0
100
AcDbPoint
 10
3247.247402
 20
802.720739
 30
0.0
  0
POINT
  5
2E57
100
AcDbEntity
  8
DEFPOINTS
  6
BYBLOCK
 62
     0
100
AcDbPoint
 10
2844.165875
 20
979.144328
 30
0.0
  0
POINT
  5
2E58
100
AcDbEntity
  8
DEFPOINTS
  6
BYBLOCK
 62
     0
100
AcDbPoint
 10
2871.54003
 20
1041.687077
 30
0.0
  0
ENDBLK
  5
2E59
100
AcDbEntity
  8
0
100
AcDbBlockEnd
  0
BLOCK
  5
2E5B
100
AcDbEntity
  8
0
100
AcDbBlockBegin
  2
*D6
 70
    65
 10
0.0
 20
0.0
 30
0.0
  3
*D6
  1

  0
LINE
  5
2E5C
100
AcDbEntity
  8
0
  6
BYBLOCK
 62
     0
100
AcDbLine
 10
2549.410971
 20
1275.529107
 30
0.0
 11
2506.847446
 21
1233.326044
 31
0.0
  0
LINE
  5
2E5D
100
AcDbEntity
  8
0
  6
BYBLOCK
 62
     0
100
AcDbLine
 10
2843.722058
 20
978.704269
 30
0.0
 11
2801.158533
 21
936.501206
 31
0.0
  0
LINE
  5
2E5E
100
AcDbEntity
  8
0
  6
BYBLOCK
 62
     0
100
AcDbLine
 10
2509.495314
 20
1232.430892
 30
0.0
 11
2800.285933
 21
939.156591
 31
0.0
  0
SOLID
  5
2E5F
100
AcDbEntity
  8
0
  6
BYBLOCK
 62
     0
100
AcDbTrace
 10
2509.791192
 20
1232.724265
 30
0.0
 11
2509.199436
 21
1232.13752
 31
0.0
 12
2507.73508
 22
1234.206161
 32
0.0
 13
2507.73508
 23
1234.206161
 33
0.0
  0
SOLID
  5
2E60
100
AcDbEntity
  8
0
  6
BYBLOCK
 62
     0
100
AcDbTrace
 10
2800.581811
 20
939.449964
 30
0.0
 11
2799.990055
 21
938.863219
 31
0.0
 12
2802.046167
 22
937.381323
 32
0.0
 13
2802.046167
 23
937.381323
 33
0.0
  0
MTEXT
  5
2E61
100
AcDbEntity
  8
0
  6
BYBLOCK
 62
     0
100
AcDbMText
 10
2662.435513
 20
1093.274735
 30
0.0
 40
20.0
 41
0.0
 71
     5
 72
     1
  1
\A1;418
 11
0.704094
 21
-0.710107
 31
0.0
  0
POINT
  5
2E62
100
AcDbEntity
  8
DEFPOINTS
  6
BYBLOCK
 62
     0
100
AcDbPoint
 10
2549.854788
 20
1275.969165
 30
0.0
  0
POINT
  5
2E63
100
AcDbEntity
  8
DEFPOINTS
  6
BYBLOCK
 62
     0
100
AcDbPoint
 10
2844.165875
 20
979.144328
 30
0.0
  0
POINT
  5
2E64
100
AcDbEntity
  8
DEFPOINTS
  6
BYBLOCK
 62
     0
100
AcDbPoint
 10
2802.046167
 20
937.381323
 30
0.0
  0
ENDBLK
  5
2E65
100
AcDbEntity
  8
0
100
AcDbBlockEnd
  0
BLOCK
  5
2E67
100
AcDbEntity
  8
0
100
AcDbBlockBegin
  2
*D7
 70
    65
 10
0.0
 20
0.0
 30
0.0
  3
*D7
  1

  0
LINE
  5
2E68
100
AcDbEntity
  8
0
  6
BYBLOCK
 62
     0
100
AcDbLine
 10
2641.907079
 20
23.225572
 30
0.0
 11
2739.807308
 21
113.180661
 31
0.0
  0
LINE
  5
2E69
100
AcDbEntity
  8
0
  6
BYBLOCK
 62
     0
100
AcDbLine
 10
1853.673223
 20
881.078933
 30
0.0
 11
1951.573452
 21
971.034021
 31
0.0
  0
LINE
  5
2E6A
100
AcDbEntity
  8
0
  6
BYBLOCK
 62
     0
100
AcDbLine
 10
2737.195375
 20
114.175803
 30
0.0
 11
1952.344497
 21
968.34739
 31
0.0
  0
SOLID
  5
2E6B
100
AcDbEntity
  8
0
  6
BYBLOCK
 62
     0
100
AcDbTrace
 10
2737.50219
 20
114.457718
 30
0.0
 11
2736.888561
 21
113.893889
 31
0.0
 12
2738.886864
 22
112.334916
 32
0.0
 13
2738.886864
 23
112.334916
 33
0.0
  0
SOLID
  5
2E6C
100
AcDbEntity
  8
0
  6
BYBLOCK
 62
     0
100
AcDbTrace
 10
1952.651312
 20
968.629305
 30
0.0
 11
1952.037683
 21
968.065475
 31
0.0
 12
1950.653008
 22
970.188277
 32
0.0
 13
1950.653008
 23
970.188277
 33
0.0
  0
MTEXT
  5
2E6D
100
AcDbEntity
  8
0
  6
BYBLOCK
 62
     0
100
AcDbMText
 10
2352.593706
 20
548.450425
 30
0.0
 40
20.0
 41
0.0
 71
     5
 72
     1
  1
\A1;1.165
 11
0.676596
 21
-0.736355
 31
0.0
  0
POINT
  5
2E6E
100
AcDbEntity
  8
DEFPOINTS
  6
BYBLOCK
 62
     0
100
AcDbPoint
 10
2641.446857
 20
22.8027
 30
0.0
  0
POINT
  5
2E6F
100
AcDbEntity
  8
DEFPOINTS
  6
BYBLOCK
 62
     0
100
AcDbPoint
 10
1853.213001
 20
880.65606
 30
0.0
  0
POINT
  5
2E70
100
AcDbEntity
  8
DEFPOINTS
  6
BYBLOCK
 62
     0
100
AcDbPoint
 10
1950.653008
 20
970.188277
 30
0.0
  0
ENDBLK
  5
2E71
100
AcDbEntity
  8
0
100
AcDbBlockEnd
  0
BLOCK
  5
2E73
100
AcDbEntity
  8
0
100
AcDbBlockBegin
  2
*D8
 70
    65
 10
0.0
 20
0.0
 30
0.0
  3
*D8
  1

  0
LINE
  5
2E74
100
AcDbEntity
  8
0
  6
BYBLOCK
 62
     0
100
AcDbLine
 10
1664.067918
 20
664.665083
 30
0.0
 11
1664.067918
 21
1064.850564
 31
0.0
  0
LINE
  5
2E75
100
AcDbEntity
  8
0
  6
BYBLOCK
 62
     0
100
AcDbLine
 10
2014.067918
 20
664.665083
 30
0.0
 11
2014.067918
 21
1064.850564
 31
0.0
  0
LINE
  5
2E76
100
AcDbEntity
  8
0
  6
BYBLOCK
 62
     0
100
AcDbLine
 10
1666.567918
 20
1063.600564
 30
0.0
 11
2011.567918
 21
1063.600564
 31
0.0
  0
SOLID
  5
2E77
100
AcDbEntity
  8
0
  6
BYBLOCK
 62
     0
100
AcDbTrace
 10
1666.567918
 20
1064.017231
 30
0.0
 11
1666.567918
 21
1063.183897
 31
0.0
 12
1664.067918
 22
1063.600564
 32
0.0
 13
1664.067918
 23
1063.600564
 33
0.0
  0
SOLID
  5
2E78
100
AcDbEntity
  8
0
  6
BYBLOCK
 62
     0
100
AcDbTrace
 10
2011.567918
 20
1064.017231
 30
0.0
 11
2011.567918
 21
1063.183897
 31
0.0
 12
2014.067918
 22
1063.600564
 32
0.0
 13
2014.067918
 23
1063.600564
 33
0.0
  0
MTEXT
  5
2E79
100
AcDbEntity
  8
0
  6
BYBLOCK
 62
     0
100
AcDbMText
 10
1839.067918
 20
1074.225564
 30
0.0
 40
20.0
 41
0.0
 71
     5
 72
     1
  1
\A1;350
  0
POINT
  5
2E7A
100
AcDbEntity
  8
DEFPOINTS
  6
BYBLOCK
 62
     0
100
AcDbPoint
 10
1664.067918
 20
664.040083
 30
0.0
  0
POINT
  5
2E7B
100
AcDbEntity
  8
DEFPOINTS
  6
BYBLOCK
 62
     0
100
AcDbPoint
 10
2014.067918
 20
664.040083
 30
0.0
  0
POINT
  5
2E7C
100
AcDbEntity
  8
DEFPOINTS
  6
BYBLOCK
 62
     0
100
AcDbPoint
 10
2014.067918
 20
1063.600564
 30
0.0
  0
ENDBLK
  5
2E7D
100
AcDbEntity
  8
0
100
AcDbBlockEnd
  0
BLOCK
  5
2E7F
100
AcDbEntity
  8
0
100
AcDbBlockBegin
  2
*D9
 70
    65
 10
0.0
 20
0.0
 30
0.0
  3
*D9
  1

  0
LINE
  5
2E80
100
AcDbEntity
  8
0
  6
BYBLOCK
 62
     0
100
AcDbLine
 10
1254.067918
 20
174.967294
 30
0.0
 11
1254.067918
 21
-258.582158
 31
0.0
  0
LINE
  5
2E81
100
AcDbEntity
  8
0
  6
BYBLOCK
 62
     0
100
AcDbLine
 10
2424.067918
 20
174.967294
 30
0.0
 11
2424.067918
 21
-258.582158
 31
0.0
  0
LINE
  5
2E82
100
AcDbEntity
  8
0
  6
BYBLOCK
 62
     0
100
AcDbLine
 10
1256.567918
 20
-257.332158
 30
0.0
 11
2421.567918
 21
-257.332158
 31
0.0
  0
SOLID
  5
2E83
100
AcDbEntity
  8
0
  6
BYBLOCK
 62
     0
100
AcDbTrace
 10
1256.567918
 20
-256.915491
 30
0.0
 11
1256.567918
 21
-257.748825
 31
0.0
 12
1254.067918
 22
-257.332158
 32
0.0
 13
1254.067918
 23
-257.332158
 33
0.0
  0
SOLID
  5
2E84
100
AcDbEntity
  8
0
  6
BYBLOCK
 62
     0
100
AcDbTrace
 10
2421.567918
 20
-256.915491
 30
0.0
 11
2421.567918
 21
-257.748825
 31
0.0
 12
2424.067918
 22
-257.332158
 32
0.0
 13
2424.067918
 23
-257.332158
 33
0.0
  0
MTEXT
  5
2E85
100
AcDbEntity
  8
0
  6
BYBLOCK
 62
     0
100
AcDbMText
 10
1839.067918
 20
-246.707158
 30
0.0
 40
20.0
 41
0.0
 71
     5
 72
     1
  1
\A1;1.170
  0
POINT
  5
2E86
100
AcDbEntity
  8
DEFPOINTS
  6
BYBLOCK
 62
     0
100
AcDbPoint
 10
1254.067918
 20
175.592294
 30
0.0
  0
POINT
  5
2E87
100
AcDbEntity
  8
DEFPOINTS
  6
BYBLOCK
 62
     0
100
AcDbPoint
 10
2424.067918
 20
175.592294
 30
0.0
  0
POINT
  5
2E88
100
AcDbEntity
  8
DEFPOINTS
  6
BYBLOCK
 62
     0
100
AcDbPoint
 10
2424.067918
 20
-257.332158
 30
0.0
  0
ENDBLK
  5
2E89
100
AcDbEntity
  8
0
100
AcDbBlockEnd
  0
BLOCK
  5
388F
100
AcDbEntity
  8
0
100
AcDbBlockBegin
  2
*D10
 70
    65
 10
0.0
 20
0.0
 30
0.0
  3
*D10
  1

  0
LINE
  5
3890
100
AcDbEntity
  8
0
  6
BYBLOCK
 62
     0
100
AcDbLine
 10
9828.06263
 20
133.118573
 30
0.0
 11
9957.495639
 21
133.118573
 31
0.0
  0
LINE
  5
3891
100
AcDbEntity
  8
0
  6
BYBLOCK
 62
     0
100
AcDbLine
 10
9828.06263
 20
-43.881427
 30
0.0
 11
9957.495639
 21
-43.881427
 31
0.0
  0
LINE
  5
3892
100
AcDbEntity
  8
0
  6
BYBLOCK
 62
     0
100
AcDbLine
 10
9956.245639
 20
130.618573
 30
0.0
 11
9956.245639
 21
-41.381427
 31
0.0
  0
SOLID
  5
3893
100
AcDbEntity
  8
0
  6
BYBLOCK
 62
     0
100
AcDbTrace
 10
9955.828973
 20
130.618573
 30
0.0
 11
9956.662306
 21
130.618573
 31
0.0
 12
9956.245639
 22
133.118573
 32
0.0
 13
9956.245639
 23
133.118573
 33
0.0
  0
SOLID
  5
3894
100
AcDbEntity
  8
0
  6
BYBLOCK
 62
     0
100
AcDbTrace
 10
9955.828973
 20
-41.381427
 30
0.0
 11
9956.662306
 21
-41.381427
 31
0.0
 12
9956.245639
 22
-43.881427
 32
0.0
 13
9956.245639
 23
-43.881427
 33
0.0
  0
MTEXT
  5
3895
100
AcDbEntity
  8
0
  6
BYBLOCK
 62
     0
100
AcDbMText
 10
9945.620639
 20
44.618573
 30
0.0
 40
20.0
 41
0.0
 71
     5
 72
     1
  1
\A1;177
 11
0.0
 21
1.0
 31
0.0
  0
POINT
  5
3896
100
AcDbEntity
  8
DEFPOINTS
  6
BYBLOCK
 62
     0
100
AcDbPoint
 10
9827.43763
 20
133.118573
 30
0.0
  0
POINT
  5
3897
100
AcDbEntity
  8
DEFPOINTS
  6
BYBLOCK
 62
     0
100
AcDbPoint
 10
9827.43763
 20
-43.881427
 30
0.0
  0
POINT
  5
3898
100
AcDbEntity
  8
DEFPOINTS
  6
BYBLOCK
 62
     0
100
AcDbPoint
 10
9956.245639
 20
-43.881427
 30
0.0
  0
ENDBLK
  5
3899
100
AcDbEntity
  8
0
100
AcDbBlockEnd
  0
BLOCK
  5
2E97
100
AcDbEntity
  8
0
100
AcDbBlockBegin
  2
*D11
 70
    65
 10
0.0
 20
0.0
 30
0.0
  3
*D11
  1

  0
LINE
  5
2E98
100
AcDbEntity
  8
0
  6
BYBLOCK
 62
     0
100
AcDbLine
 10
1726.623805
 20
626.199103
 30
0.0
 11
1610.23653
 21
704.854099
 31
0.0
  0
LINE
  5
2E99
100
AcDbEntity
  8
0
  6
BYBLOCK
 62
     0
100
AcDbLine
 10
1435.459969
 20
195.358506
 30
0.0
 11
1319.072694
 21
274.013502
 31
0.0
  0
LINE
  5
2E9A
100
AcDbEntity
  8
0
  6
BYBLOCK
 62
     0
100
AcDbLine
 10
1609.872379
 20
702.082837
 30
0.0
 11
1321.508195
 21
275.384938
 31
0.0
  0
SOLID
  5
2E9B
100
AcDbEntity
  8
0
  6
BYBLOCK
 62
     0
100
AcDbTrace
 10
1609.527154
 20
702.316142
 30
0.0
 11
1610.217604
 21
701.849533
 31
0.0
 12
1611.272205
 22
704.154186
 32
0.0
 13
1611.272205
 23
704.154186
 33
0.0
  0
SOLID
  5
2E9C
100
AcDbEntity
  8
0
  6
BYBLOCK
 62
     0
100
AcDbTrace
 10
1321.16297
 20
275.618242
 30
0.0
 11
1321.853419
 21
275.151634
 31
0.0
 12
1320.108368
 22
273.313589
 32
0.0
 13
1320.108368
 23
273.313589
 33
0.0
  0
MTEXT
  5
2E9D
100
AcDbEntity
  8
0
  6
BYBLOCK
 62
     0
100
AcDbMText
 10
1456.887053
 20
494.683149
 30
0.0
 40
20.0
 41
0.0
 71
     5
 72
     1
  1
\A1;520
 11
0.55993
 21
0.82854
 31
0.0
  0
POINT
  5
2E9E
100
AcDbEntity
  8
DEFPOINTS
  6
BYBLOCK
 62
     0
100
AcDbPoint
 10
1727.141642
 20
625.849147
 30
0.0
  0
POINT
  5
2E9F
100
AcDbEntity
  8
DEFPOINTS
  6
BYBLOCK
 62
     0
100
AcDbPoint
 10
1435.977806
 20
195.00855
 30
0.0
  0
POINT
  5
2EA0
100
AcDbEntity
  8
DEFPOINTS
  6
BYBLOCK
 62
     0
100
AcDbPoint
 10
1320.108368
 20
273.313589
 30
0.0
  0
ENDBLK
  5
2EA1
100
AcDbEntity
  8
0
100
AcDbBlockEnd
  0
BLOCK
  5
2EA3
100
AcDbEntity
  8
0
100
AcDbBlockBegin
  2
*D12
 70
    65
 10
0.0
 20
0.0
 30
0.0
  3
*D12
  1

  0
LINE
  5
2EA4
100
AcDbEntity
  8
0
  6
BYBLOCK
 62
     0
100
AcDbLine
 10
1784.067918
 20
678.673786
 30
0.0
 11
1784.067918
 21
986.667278
 31
0.0
  0
LINE
  5
2EA5
100
AcDbEntity
  8
0
  6
BYBLOCK
 62
     0
100
AcDbLine
 10
1664.067918
 20
664.665083
 30
0.0
 11
1664.067918
 21
986.667278
 31
0.0
  0
LINE
  5
2EA6
100
AcDbEntity
  8
0
  6
BYBLOCK
 62
     0
100
AcDbLine
 10
1781.567918
 20
985.417278
 30
0.0
 11
1666.567918
 21
985.417278
 31
0.0
  0
SOLID
  5
2EA7
100
AcDbEntity
  8
0
  6
BYBLOCK
 62
     0
100
AcDbTrace
 10
1781.567918
 20
985.833944
 30
0.0
 11
1781.567918
 21
985.000611
 31
0.0
 12
1784.067918
 22
985.417278
 32
0.0
 13
1784.067918
 23
985.417278
 33
0.0
  0
SOLID
  5
2EA8
100
AcDbEntity
  8
0
  6
BYBLOCK
 62
     0
100
AcDbTrace
 10
1666.567918
 20
985.833944
 30
0.0
 11
1666.567918
 21
985.000611
 31
0.0
 12
1664.067918
 22
985.417278
 32
0.0
 13
1664.067918
 23
985.417278
 33
0.0
  0
MTEXT
  5
2EA9
100
AcDbEntity
  8
0
  6
BYBLOCK
 62
     0
100
AcDbMText
 10
1724.067918
 20
996.042278
 30
0.0
 40
20.0
 41
0.0
 71
     5
 72
     1
  1
\A1;120
  0
POINT
  5
2EAA
100
AcDbEntity
  8
DEFPOINTS
  6
BYBLOCK
 62
     0
100
AcDbPoint
 10
1784.067918
 20
678.048786
 30
0.0
  0
POINT
  5
2EAB
100
AcDbEntity
  8
DEFPOINTS
  6
BYBLOCK
 62
     0
100
AcDbPoint
 10
1664.067918
 20
664.040083
 30
0.0
  0
POINT
  5
2EAC
100
AcDbEntity
  8
DEFPOINTS
  6
BYBLOCK
 62
     0
100
AcDbPoint
 10
1664.067918
 20
985.417278
 30
0.0
  0
ENDBLK
  5
2EAD
100
AcDbEntity
  8
0
100
AcDbBlockEnd
  0
BLOCK
  5
2EAF
100
AcDbEntity
  8
0
100
AcDbBlockBegin
  2
*D13
 70
    65
 10
0.0
 20
0.0
 30
0.0
  3
*D13
  1

  0
LINE
  5
2EB0
100
AcDbEntity
  8
0
  6
BYBLOCK
 62
     0
100
AcDbLine
 10
2424.067918
 20
174.967294
 30
0.0
 11
2424.067918
 21
-199.58137
 31
0.0
  0
LINE
  5
2EB1
100
AcDbEntity
  8
0
  6
BYBLOCK
 62
     0
100
AcDbLine
 10
1839.067918
 20
96.0953
 30
0.0
 11
1839.067918
 21
-199.58137
 31
0.0
  0
LINE
  5
2EB2
100
AcDbEntity
  8
0
  6
BYBLOCK
 62
     0
100
AcDbLine
 10
2421.567918
 20
-198.33137
 30
0.0
 11
1841.567918
 21
-198.33137
 31
0.0
  0
SOLID
  5
2EB3
100
AcDbEntity
  8
0
  6
BYBLOCK
 62
     0
100
AcDbTrace
 10
2421.567918
 20
-197.914703
 30
0.0
 11
2421.567918
 21
-198.748037
 31
0.0
 12
2424.067918
 22
-198.33137
 32
0.0
 13
2424.067918
 23
-198.33137
 33
0.0
  0
SOLID
  5
2EB4
100
AcDbEntity
  8
0
  6
BYBLOCK
 62
     0
100
AcDbTrace
 10
1841.567918
 20
-197.914703
 30
0.0
 11
1841.567918
 21
-198.748037
 31
0.0
 12
1839.067918
 22
-198.33137
 32
0.0
 13
1839.067918
 23
-198.33137
 33
0.0
  0
MTEXT
  5
2EB5
100
AcDbEntity
  8
0
  6
BYBLOCK
 62
     0
100
AcDbMText
 10
2131.567918
 20
-187.70637
 30
0.0
 40
20.0
 41
0.0
 71
     5
 72
     1
  1
\A1;585
  0
POINT
  5
2EB6
100
AcDbEntity
  8
DEFPOINTS
  6
BYBLOCK
 62
     0
100
AcDbPoint
 10
2424.067918
 20
175.592294
 30
0.0
  0
POINT
  5
2EB7
100
AcDbEntity
  8
DEFPOINTS
  6
BYBLOCK
 62
     0
100
AcDbPoint
 10
1839.067918
 20
96.7203
 30
0.0
  0
POINT
  5
2EB8
100
AcDbEntity
  8
DEFPOINTS
  6
BYBLOCK
 62
     0
100
AcDbPoint
 10
1839.067918
 20
-198.33137
 30
0.0
  0
ENDBLK
  5
2EB9
100
AcDbEntity
  8
0
100
AcDbBlockEnd
  0
BLOCK
  5
2EBB
100
AcDbEntity
  8
0
100
AcDbBlockBegin
  2
*D14
 70
    65
 10
0.0
 20
0.0
 30
0.0
  3
*D14
  1

  0
LINE
  5
2EBC
100
AcDbEntity
  8
0
  6
BYBLOCK
 62
     0
100
AcDbLine
 10
-0.625
 20
0.0
 30
0.0
 11
-53.948586
 21
0.0
 31
0.0
  0
LINE
  5
2EBD
100
AcDbEntity
  8
0
  6
BYBLOCK
 62
     0
100
AcDbLine
 10
-0.625
 20
223.0
 30
0.0
 11
-53.948586
 21
223.0
 31
0.0
  0
LINE
  5
2EBE
100
AcDbEntity
  8
0
  6
BYBLOCK
 62
     0
100
AcDbLine
 10
-52.698586
 20
2.5
 30
0.0
 11
-52.698586
 21
220.5
 31
0.0
  0
SOLID
  5
2EBF
100
AcDbEntity
  8
0
  6
BYBLOCK
 62
     0
100
AcDbTrace
 10
-53.115252
 20
2.5
 30
0.0
 11
-52.281919
 21
2.5
 31
0.0
 12
-52.698586
 22
0.0
 32
0.0
 13
-52.698586
 23
0.0
 33
0.0
  0
SOLID
  5
2EC0
100
AcDbEntity
  8
0
  6
BYBLOCK
 62
     0
100
AcDbTrace
 10
-53.115252
 20
220.5
 30
0.0
 11
-52.281919
 21
220.5
 31
0.0
 12
-52.698586
 22
223.0
 32
0.0
 13
-52.698586
 23
223.0
 33
0.0
  0
MTEXT
  5
2EC1
100
AcDbEntity
  8
0
  6
BYBLOCK
 62
     0
100
AcDbMText
 10
-63.323586
 20
111.5
 30
0.0
 40
20.0
 41
0.0
 71
     5
 72
     1
  1
\A1;223
 11
0.0
 21
1.0
 31
0.0
  0
POINT
  5
2EC2
100
AcDbEntity
  8
DEFPOINTS
  6
BYBLOCK
 62
     0
100
AcDbPoint
 10
0.0
 20
0.0
 30
0.0
  0
POINT
  5
2EC3
100
AcDbEntity
  8
DEFPOINTS
  6
BYBLOCK
 62
     0
100
AcDbPoint
 10
0.0
 20
223.0
 30
0.0
  0
POINT
  5
2EC4
100
AcDbEntity
  8
DEFPOINTS
  6
BYBLOCK
 62
     0
100
AcDbPoint
 10
-52.698586
 20
223.0
 30
0.0
  0
ENDBLK
  5
2EC5
100
AcDbEntity
  8
0
100
AcDbBlockEnd
  0
BLOCK
  5
2EC7
100
AcDbEntity
  8
0
100
AcDbBlockBegin
  2
*D15
 70
    65
 10
0.0
 20
0.0
 30
0.0
  3
*D15
  1

  0
LINE
  5
2EC8
100
AcDbEntity
  8
0
  6
BYBLOCK
 62
     0
100
AcDbLine
 10
-0.625
 20
223.0
 30
0.0
 11
-54.365252
 21
223.0
 31
0.0
  0
LINE
  5
2EC9
100
AcDbEntity
  8
0
  6
BYBLOCK
 62
     0
100
AcDbLine
 10
-0.625
 20
623.0
 30
0.0
 11
-54.365252
 21
623.0
 31
0.0
  0
LINE
  5
2ECA
100
AcDbEntity
  8
0
  6
BYBLOCK
 62
     0
100
AcDbLine
 10
-53.115252
 20
225.5
 30
0.0
 11
-53.115252
 21
620.5
 31
0.0
  0
SOLID
  5
2ECB
100
AcDbEntity
  8
0
  6
BYBLOCK
 62
     0
100
AcDbTrace
 10
-53.531919
 20
225.5
 30
0.0
 11
-52.698586
 21
225.5
 31
0.0
 12
-53.115252
 22
223.0
 32
0.0
 13
-53.115252
 23
223.0
 33
0.0
  0
SOLID
  5
2ECC
100
AcDbEntity
  8
0
  6
BYBLOCK
 62
     0
100
AcDbTrace
 10
-53.531919
 20
620.5
 30
0.0
 11
-52.698586
 21
620.5
 31
0.0
 12
-53.115252
 22
623.0
 32
0.0
 13
-53.115252
 23
623.0
 33
0.0
  0
MTEXT
  5
2ECD
100
AcDbEntity
  8
0
  6
BYBLOCK
 62
     0
100
AcDbMText
 10
-63.740252
 20
423.0
 30
0.0
 40
20.0
 41
0.0
 71
     5
 72
     1
  1
\A1;400
 11
0.0
 21
1.0
 31
0.0
  0
POINT
  5
2ECE
100
AcDbEntity
  8
DEFPOINTS
  6
BYBLOCK
 62
     0
100
AcDbPoint
 10
0.0
 20
223.0
 30
0.0
  0
POINT
  5
2ECF
100
AcDbEntity
  8
DEFPOINTS
  6
BYBLOCK
 62
     0
100
AcDbPoint
 10
0.0
 20
623.0
 30
0.0
  0
POINT
  5
2ED0
100
AcDbEntity
  8
DEFPOINTS
  6
BYBLOCK
 62
     0
100
AcDbPoint
 10
-53.115252
 20
623.0
 30
0.0
  0
ENDBLK
  5
2ED1
100
AcDbEntity
  8
0
100
AcDbBlockEnd
  0
BLOCK
  5
2ED3
100
AcDbEntity
  8
0
100
AcDbBlockBegin
  2
*D16
 70
    65
 10
0.0
 20
0.0
 30
0.0
  3
*D16
  1

  0
LINE
  5
2ED4
100
AcDbEntity
  8
0
  6
BYBLOCK
 62
     0
100
AcDbLine
 10
-0.625
 20
623.0
 30
0.0
 11
-54.781919
 21
623.0
 31
0.0
  0
LINE
  5
2ED5
100
AcDbEntity
  8
0
  6
BYBLOCK
 62
     0
100
AcDbLine
 10
-0.625
 20
757.5
 30
0.0
 11
-54.781919
 21
757.5
 31
0.0
  0
LINE
  5
2ED6
100
AcDbEntity
  8
0
  6
BYBLOCK
 62
     0
100
AcDbLine
 10
-53.531919
 20
625.5
 30
0.0
 11
-53.531919
 21
755.0
 31
0.0
  0
SOLID
  5
2ED7
100
AcDbEntity
  8
0
  6
BYBLOCK
 62
     0
100
AcDbTrace
 10
-53.948586
 20
625.5
 30
0.0
 11
-53.115252
 21
625.5
 31
0.0
 12
-53.531919
 22
623.0
 32
0.0
 13
-53.531919
 23
623.0
 33
0.0
  0
SOLID
  5
2ED8
100
AcDbEntity
  8
0
  6
BYBLOCK
 62
     0
100
AcDbTrace
 10
-53.948586
 20
755.0
 30
0.0
 11
-53.115252
 21
755.0
 31
0.0
 12
-53.531919
 22
757.5
 32
0.0
 13
-53.531919
 23
757.5
 33
0.0
  0
MTEXT
  5
2ED9
100
AcDbEntity
  8
0
  6
BYBLOCK
 62
     0
100
AcDbMText
 10
-65.823586
 20
690.25
 30
0.0
 40
20.0
 41
0.0
 71
     5
 72
     1
  1
\A1;134,5
 11
0.0
 21
1.0
 31
0.0
  0
POINT
  5
2EDA
100
AcDbEntity
  8
DEFPOINTS
  6
BYBLOCK
 62
     0
100
AcDbPoint
 10
0.0
 20
623.0
 30
0.0
  0
POINT
  5
2EDB
100
AcDbEntity
  8
DEFPOINTS
  6
BYBLOCK
 62
     0
100
AcDbPoint
 10
0.0
 20
757.5
 30
0.0
  0
POINT
  5
2EDC
100
AcDbEntity
  8
DEFPOINTS
  6
BYBLOCK
 62
     0
100
AcDbPoint
 10
-53.531919
 20
757.5
 30
0.0
  0
ENDBLK
  5
2EDD
100
AcDbEntity
  8
0
100
AcDbBlockEnd
  0
BLOCK
  5
2EDF
100
AcDbEntity
  8
0
100
AcDbBlockBegin
  2
*D17
 70
    65
 10
0.0
 20
0.0
 30
0.0
  3
*D17
  1

  0
LINE
  5
2EE0
100
AcDbEntity
  8
0
  6
BYBLOCK
 62
     0
100
AcDbLine
 10
194.375
 20
504.0
 30
0.0
 11
127.577234
 21
504.0
 31
0.0
  0
LINE
  5
2EE1
100
AcDbEntity
  8
0
  6
BYBLOCK
 62
     0
100
AcDbLine
 10
194.375
 20
0.0
 30
0.0
 11
127.577234
 21
0.0
 31
0.0
  0
LINE
  5
2EE2
100
AcDbEntity
  8
0
  6
BYBLOCK
 62
     0
100
AcDbLine
 10
128.827234
 20
501.5
 30
0.0
 11
128.827234
 21
2.5
 31
0.0
  0
SOLID
  5
2EE3
100
AcDbEntity
  8
0
  6
BYBLOCK
 62
     0
100
AcDbTrace
 10
128.410567
 20
501.5
 30
0.0
 11
129.243901
 21
501.5
 31
0.0
 12
128.827234
 22
504.0
 32
0.0
 13
128.827234
 23
504.0
 33
0.0
  0
SOLID
  5
2EE4
100
AcDbEntity
  8
0
  6
BYBLOCK
 62
     0
100
AcDbTrace
 10
128.410567
 20
2.5
 30
0.0
 11
129.243901
 21
2.5
 31
0.0
 12
128.827234
 22
0.0
 32
0.0
 13
128.827234
 23
0.0
 33
0.0
  0
MTEXT
  5
2EE5
100
AcDbEntity
  8
0
  6
BYBLOCK
 62
     0
100
AcDbMText
 10
118.202234
 20
252.0
 30
0.0
 40
20.0
 41
0.0
 71
     5
 72
     1
  1
\A1;504
 11
0.0
 21
1.0
 31
0.0
  0
POINT
  5
2EE6
100
AcDbEntity
  8
DEFPOINTS
  6
BYBLOCK
 62
     0
100
AcDbPoint
 10
195.0
 20
504.0
 30
0.0
  0
POINT
  5
2EE7
100
AcDbEntity
  8
DEFPOINTS
  6
BYBLOCK
 62
     0
100
AcDbPoint
 10
195.0
 20
0.0
 30
0.0
  0
POINT
  5
2EE8
100
AcDbEntity
  8
DEFPOINTS
  6
BYBLOCK
 62
     0
100
AcDbPoint
 10
128.827234
 20
0.0
 30
0.0
  0
ENDBLK
  5
2EE9
100
AcDbEntity
  8
0
100
AcDbBlockEnd
  0
BLOCK
  5
2EEB
100
AcDbEntity
  8
0
100
AcDbBlockBegin
  2
*D18
 70
    65
 10
0.0
 20
0.0
 30
0.0
  3
*D18
  1

  0
LINE
  5
2EEC
100
AcDbEntity
  8
0
  6
BYBLOCK
 62
     0
100
AcDbLine
 10
288.125
 20
371.0
 30
0.0
 11
334.875596
 21
371.0
 31
0.0
  0
LINE
  5
2EED
100
AcDbEntity
  8
0
  6
BYBLOCK
 62
     0
100
AcDbLine
 10
288.125
 20
0.0
 30
0.0
 11
334.875596
 21
0.0
 31
0.0
  0
LINE
  5
2EEE
100
AcDbEntity
  8
0
  6
BYBLOCK
 62
     0
100
AcDbLine
 10
333.625596
 20
368.5
 30
0.0
 11
333.625596
 21
2.5
 31
0.0
  0
SOLID
  5
2EEF
100
AcDbEntity
  8
0
  6
BYBLOCK
 62
     0
100
AcDbTrace
 10
333.208929
 20
368.5
 30
0.0
 11
334.042262
 21
368.5
 31
0.0
 12
333.625596
 22
371.0
 32
0.0
 13
333.625596
 23
371.0
 33
0.0
  0
SOLID
  5
2EF0
100
AcDbEntity
  8
0
  6
BYBLOCK
 62
     0
100
AcDbTrace
 10
333.208929
 20
2.5
 30
0.0
 11
334.042262
 21
2.5
 31
0.0
 12
333.625596
 22
0.0
 32
0.0
 13
333.625596
 23
0.0
 33
0.0
  0
MTEXT
  5
2EF1
100
AcDbEntity
  8
0
  6
BYBLOCK
 62
     0
100
AcDbMText
 10
323.000596
 20
185.5
 30
0.0
 40
20.0
 41
0.0
 71
     5
 72
     1
  1
\A1;371
 11
0.0
 21
1.0
 31
0.0
  0
POINT
  5
2EF2
100
AcDbEntity
  8
DEFPOINTS
  6
BYBLOCK
 62
     0
100
AcDbPoint
 10
287.5
 20
371.0
 30
0.0
  0
POINT
  5
2EF3
100
AcDbEntity
  8
DEFPOINTS
  6
BYBLOCK
 62
     0
100
AcDbPoint
 10
287.5
 20
0.0
 30
0.0
  0
POINT
  5
2EF4
100
AcDbEntity
  8
DEFPOINTS
  6
BYBLOCK
 62
     0
100
AcDbPoint
 10
333.625596
 20
0.0
 30
0.0
  0
ENDBLK
  5
2EF5
100
AcDbEntity
  8
0
100
AcDbBlockEnd
  0
BLOCK
  5
2EF7
100
AcDbEntity
  8
0
100
AcDbBlockBegin
  2
*D19
 70
    65
 10
0.0
 20
0.0
 30
0.0
  3
*D19
  1

  0
LINE
  5
2EF8
100
AcDbEntity
  8
0
  6
BYBLOCK
 62
     0
100
AcDbLine
 10
195.0
 20
504.625
 30
0.0
 11
195.0
 21
565.19609
 31
0.0
  0
LINE
  5
2EF9
100
AcDbEntity
  8
0
  6
BYBLOCK
 62
     0
100
AcDbLine
 10
0.0
 20
504.625
 30
0.0
 11
0.0
 21
565.19609
 31
0.0
  0
LINE
  5
2EFA
100
AcDbEntity
  8
0
  6
BYBLOCK
 62
     0
100
AcDbLine
 10
192.5
 20
563.94609
 30
0.0
 11
2.5
 21
563.94609
 31
0.0
  0
SOLID
  5
2EFB
100
AcDbEntity
  8
0
  6
BYBLOCK
 62
     0
100
AcDbTrace
 10
192.5
 20
564.362757
 30
0.0
 11
192.5
 21
563.529423
 31
0.0
 12
195.0
 22
563.94609
 32
0.0
 13
195.0
 23
563.94609
 33
0.0
  0
SOLID
  5
2EFC
100
AcDbEntity
  8
0
  6
BYBLOCK
 62
     0
100
AcDbTrace
 10
2.5
 20
564.362757
 30
0.0
 11
2.5
 21
563.529423
 31
0.0
 12
0.0
 22
563.94609
 32
0.0
 13
0.0
 23
563.94609
 33
0.0
  0
MTEXT
  5
2EFD
100
AcDbEntity
  8
0
  6
BYBLOCK
 62
     0
100
AcDbMText
 10
97.5
 20
574.57109
 30
0.0
 40
20.0
 41
0.0
 71
     5
 72
     1
  1
\A1;195
  0
POINT
  5
2EFE
100
AcDbEntity
  8
DEFPOINTS
  6
BYBLOCK
 62
     0
100
AcDbPoint
 10
195.0
 20
504.0
 30
0.0
  0
POINT
  5
2EFF
100
AcDbEntity
  8
DEFPOINTS
  6
BYBLOCK
 62
     0
100
AcDbPoint
 10
0.0
 20
504.0
 30
0.0
  0
POINT
  5
2F00
100
AcDbEntity
  8
DEFPOINTS
  6
BYBLOCK
 62
     0
100
AcDbPoint
 10
0.0
 20
563.94609
 30
0.0
  0
ENDBLK
  5
2F01
100
AcDbEntity
  8
0
100
AcDbBlockEnd
  0
BLOCK
  5
2F03
100
AcDbEntity
  8
0
100
AcDbBlockBegin
  2
*D20
 70
    65
 10
0.0
 20
0.0
 30
0.0
  3
*D20
  1

  0
LINE
  5
2F04
100
AcDbEntity
  8
0
  6
BYBLOCK
 62
     0
100
AcDbLine
 10
287.5
 20
370.375
 30
0.0
 11
287.5
 21
318.639993
 31
0.0
  0
LINE
  5
2F05
100
AcDbEntity
  8
0
  6
BYBLOCK
 62
     0
100
AcDbLine
 10
0.0
 20
370.375
 30
0.0
 11
0.0
 21
318.639993
 31
0.0
  0
LINE
  5
2F06
100
AcDbEntity
  8
0
  6
BYBLOCK
 62
     0
100
AcDbLine
 10
285.0
 20
319.889993
 30
0.0
 11
2.5
 21
319.889993
 31
0.0
  0
SOLID
  5
2F07
100
AcDbEntity
  8
0
  6
BYBLOCK
 62
     0
100
AcDbTrace
 10
285.0
 20
320.30666
 30
0.0
 11
285.0
 21
319.473327
 31
0.0
 12
287.5
 22
319.889993
 32
0.0
 13
287.5
 23
319.889993
 33
0.0
  0
SOLID
  5
2F08
100
AcDbEntity
  8
0
  6
BYBLOCK
 62
     0
100
AcDbTrace
 10
2.5
 20
320.30666
 30
0.0
 11
2.5
 21
319.473327
 31
0.0
 12
0.0
 22
319.889993
 32
0.0
 13
0.0
 23
319.889993
 33
0.0
  0
MTEXT
  5
2F09
100
AcDbEntity
  8
0
  6
BYBLOCK
 62
     0
100
AcDbMText
 10
143.75
 20
332.18166
 30
0.0
 40
20.0
 41
0.0
 71
     5
 72
     1
  1
\A1;287,5
  0
POINT
  5
2F0A
100
AcDbEntity
  8
DEFPOINTS
  6
BYBLOCK
 62
     0
100
AcDbPoint
 10
287.5
 20
371.0
 30
0.0
  0
POINT
  5
2F0B
100
AcDbEntity
  8
DEFPOINTS
  6
BYBLOCK
 62
     0
100
AcDbPoint
 10
0.0
 20
371.0
 30
0.0
  0
POINT
  5
2F0C
100
AcDbEntity
  8
DEFPOINTS
  6
BYBLOCK
 62
     0
100
AcDbPoint
 10
0.0
 20
319.889993
 30
0.0
  0
ENDBLK
  5
2F0D
100
AcDbEntity
  8
0
100
AcDbBlockEnd
  0
BLOCK
  5
2F0F
100
AcDbEntity
  8
0
100
AcDbBlockBegin
  2
*D21
 70
    65
 10
0.0
 20
0.0
 30
0.0
  3
*D21
  1

  0
LINE
  5
2F10
100
AcDbEntity
  8
0
  6
BYBLOCK
 62
     0
100
AcDbLine
 10
0.0
 20
-0.625
 30
0.0
 11
0.0
 21
-53.255017
 31
0.0
  0
LINE
  5
2F11
100
AcDbEntity
  8
0
  6
BYBLOCK
 62
     0
100
AcDbLine
 10
908.0
 20
41.875
 30
0.0
 11
908.0
 21
-53.255017
 31
0.0
  0
LINE
  5
2F12
100
AcDbEntity
  8
0
  6
BYBLOCK
 62
     0
100
AcDbLine
 10
2.5
 20
-52.005017
 30
0.0
 11
905.5
 21
-52.005017
 31
0.0
  0
SOLID
  5
2F13
100
AcDbEntity
  8
0
  6
BYBLOCK
 62
     0
100
AcDbTrace
 10
2.5
 20
-51.58835
 30
0.0
 11
2.5
 21
-52.421683
 31
0.0
 12
0.0
 22
-52.005017
 32
0.0
 13
0.0
 23
-52.005017
 33
0.0
  0
SOLID
  5
2F14
100
AcDbEntity
  8
0
  6
BYBLOCK
 62
     0
100
AcDbTrace
 10
905.5
 20
-51.58835
 30
0.0
 11
905.5
 21
-52.421683
 31
0.0
 12
908.0
 22
-52.005017
 32
0.0
 13
908.0
 23
-52.005017
 33
0.0
  0
MTEXT
  5
2F15
100
AcDbEntity
  8
0
  6
BYBLOCK
 62
     0
100
AcDbMText
 10
454.0
 20
-41.380017
 30
0.0
 40
20.0
 41
0.0
 71
     5
 72
     1
  1
\A1;908
  0
POINT
  5
2F16
100
AcDbEntity
  8
DEFPOINTS
  6
BYBLOCK
 62
     0
100
AcDbPoint
 10
0.0
 20
0.0
 30
0.0
  0
POINT
  5
2F17
100
AcDbEntity
  8
DEFPOINTS
  6
BYBLOCK
 62
     0
100
AcDbPoint
 10
908.0
 20
42.5
 30
0.0
  0
POINT
  5
2F18
100
AcDbEntity
  8
DEFPOINTS
  6
BYBLOCK
 62
     0
100
AcDbPoint
 10
908.0
 20
-52.005017
 30
0.0
  0
ENDBLK
  5
2F19
100
AcDbEntity
  8
0
100
AcDbBlockEnd
  0
BLOCK
  5
2F1B
100
AcDbEntity
  8
0
100
AcDbBlockBegin
  2
*D22
 70
    65
 10
0.0
 20
0.0
 30
0.0
  3
*D22
  1

  0
LINE
  5
2F1C
100
AcDbEntity
  8
0
  6
BYBLOCK
 62
     0
100
AcDbLine
 10
2858.309643
 20
445.001282
 30
0.0
 11
2858.309643
 21
418.621535
 31
0.0
  0
LINE
  5
2F1D
100
AcDbEntity
  8
0
  6
BYBLOCK
 62
     0
100
AcDbLine
 10
2943.309643
 20
445.001282
 30
0.0
 11
2943.309643
 21
418.621535
 31
0.0
  0
LINE
  5
2F1E
100
AcDbEntity
  8
0
  6
BYBLOCK
 62
     0
100
AcDbLine
 10
2860.809643
 20
419.871535
 30
0.0
 11
2940.809643
 21
419.871535
 31
0.0
  0
SOLID
  5
2F1F
100
AcDbEntity
  8
0
  6
BYBLOCK
 62
     0
100
AcDbTrace
 10
2860.809643
 20
420.288202
 30
0.0
 11
2860.809643
 21
419.454868
 31
0.0
 12
2858.309643
 22
419.871535
 32
0.0
 13
2858.309643
 23
419.871535
 33
0.0
  0
SOLID
  5
2F20
100
AcDbEntity
  8
0
  6
BYBLOCK
 62
     0
100
AcDbTrace
 10
2940.809643
 20
420.288202
 30
0.0
 11
2940.809643
 21
419.454868
 31
0.0
 12
2943.309643
 22
419.871535
 32
0.0
 13
2943.309643
 23
419.871535
 33
0.0
  0
MTEXT
  5
2F21
100
AcDbEntity
  8
0
  6
BYBLOCK
 62
     0
100
AcDbMText
 10
2900.809643
 20
430.496535
 30
0.0
 40
20.0
 41
0.0
 71
     5
 72
     1
  1
\A1;85
  0
POINT
  5
2F22
100
AcDbEntity
  8
DEFPOINTS
  6
BYBLOCK
 62
     0
100
AcDbPoint
 10
2858.309643
 20
445.626282
 30
0.0
  0
POINT
  5
2F23
100
AcDbEntity
  8
DEFPOINTS
  6
BYBLOCK
 62
     0
100
AcDbPoint
 10
2943.309643
 20
445.626282
 30
0.0
  0
POINT
  5
2F24
100
AcDbEntity
  8
DEFPOINTS
  6
BYBLOCK
 62
     0
100
AcDbPoint
 10
2943.309643
 20
419.871535
 30
0.0
  0
ENDBLK
  5
2F25
100
AcDbEntity
  8
0
100
AcDbBlockEnd
  0
BLOCK
  5
2F27
100
AcDbEntity
  8
0
100
AcDbBlockBegin
  2
*D23
 70
    65
 10
0.0
 20
0.0
 30
0.0
  3
*D23
  1

  0
LINE
  5
2F28
100
AcDbEntity
  8
0
  6
BYBLOCK
 62
     0
100
AcDbLine
 10
2883.309643
 20
462.251282
 30
0.0
 11
2883.309643
 21
472.021922
 31
0.0
  0
LINE
  5
2F29
100
AcDbEntity
  8
0
  6
BYBLOCK
 62
     0
100
AcDbLine
 10
2918.309643
 20
462.251282
 30
0.0
 11
2918.309643
 21
472.021922
 31
0.0
  0
LINE
  5
2F2A
100
AcDbEntity
  8
0
  6
BYBLOCK
 62
     0
100
AcDbLine
 10
2885.809643
 20
470.771922
 30
0.0
 11
2915.809643
 21
470.771922
 31
0.0
  0
SOLID
  5
2F2B
100
AcDbEntity
  8
0
  6
BYBLOCK
 62
     0
100
AcDbTrace
 10
2885.809643
 20
471.188589
 30
0.0
 11
2885.809643
 21
470.355256
 31
0.0
 12
2883.309643
 22
470.771922
 32
0.0
 13
2883.309643
 23
470.771922
 33
0.0
  0
SOLID
  5
2F2C
100
AcDbEntity
  8
0
  6
BYBLOCK
 62
     0
100
AcDbTrace
 10
2915.809643
 20
471.188589
 30
0.0
 11
2915.809643
 21
470.355256
 31
0.0
 12
2918.309643
 22
470.771922
 32
0.0
 13
2918.309643
 23
470.771922
 33
0.0
  0
MTEXT
  5
2F2D
100
AcDbEntity
  8
0
  6
BYBLOCK
 62
     0
100
AcDbMText
 10
2900.809643
 20
481.396922
 30
0.0
 40
20.0
 41
0.0
 71
     5
 72
     1
  1
\A1;35
  0
POINT
  5
2F2E
100
AcDbEntity
  8
DEFPOINTS
  6
BYBLOCK
 62
     0
100
AcDbPoint
 10
2883.309643
 20
461.626282
 30
0.0
  0
POINT
  5
2F2F
100
AcDbEntity
  8
DEFPOINTS
  6
BYBLOCK
 62
     0
100
AcDbPoint
 10
2918.309643
 20
461.626282
 30
0.0
  0
POINT
  5
2F30
100
AcDbEntity
  8
DEFPOINTS
  6
BYBLOCK
 62
     0
100
AcDbPoint
 10
2918.309643
 20
470.771922
 30
0.0
  0
ENDBLK
  5
2F31
100
AcDbEntity
  8
0
100
AcDbBlockEnd
  0
BLOCK
  5
2F33
100
AcDbEntity
  8
0
100
AcDbBlockBegin
  2
*D24
 70
    65
 10
0.0
 20
0.0
 30
0.0
  3
*D24
  1

  0
LINE
  5
2F34
100
AcDbEntity
  8
0
  6
BYBLOCK
 62
     0
100
AcDbLine
 10
2943.934643
 20
445.626282
 30
0.0
 11
2964.804639
 21
445.626282
 31
0.0
  0
LINE
  5
2F35
100
AcDbEntity
  8
0
  6
BYBLOCK
 62
     0
100
AcDbLine
 10
2918.934643
 20
461.626282
 30
0.0
 11
2964.804639
 21
461.626282
 31
0.0
  0
LINE
  5
2F36
100
AcDbEntity
  8
0
  6
BYBLOCK
 62
     0
100
AcDbLine
 10
2963.554639
 20
448.126282
 30
0.0
 11
2963.554639
 21
459.126282
 31
0.0
  0
LINE
  5
2F37
100
AcDbEntity
  8
0
  6
BYBLOCK
 62
     0
100
AcDbLine
 10
2963.554639
 20
461.626282
 30
0.0
 11
2963.554639
 21
492.042949
 31
0.0
  0
SOLID
  5
2F38
100
AcDbEntity
  8
0
  6
BYBLOCK
 62
     0
100
AcDbTrace
 10
2963.137972
 20
448.126282
 30
0.0
 11
2963.971306
 21
448.126282
 31
0.0
 12
2963.554639
 22
445.626282
 32
0.0
 13
2963.554639
 23
445.626282
 33
0.0
  0
SOLID
  5
2F39
100
AcDbEntity
  8
0
  6
BYBLOCK
 62
     0
100
AcDbTrace
 10
2963.137972
 20
459.126282
 30
0.0
 11
2963.971306
 21
459.126282
 31
0.0
 12
2963.554639
 22
461.626282
 32
0.0
 13
2963.554639
 23
461.626282
 33
0.0
  0
MTEXT
  5
2F3A
100
AcDbEntity
  8
0
  6
BYBLOCK
 62
     0
100
AcDbMText
 10
2952.929639
 20
478.084615
 30
0.0
 40
20.0
 41
0.0
 71
     5
 72
     1
  1
\A1;16
 11
0.0
 21
1.0
 31
0.0
  0
POINT
  5
2F3B
100
AcDbEntity
  8
DEFPOINTS
  6
BYBLOCK
 62
     0
100
AcDbPoint
 10
2943.309643
 20
445.626282
 30
0.0
  0
POINT
  5
2F3C
100
AcDbEntity
  8
DEFPOINTS
  6
BYBLOCK
 62
     0
100
AcDbPoint
 10
2918.309643
 20
461.626282
 30
0.0
  0
POINT
  5
2F3D
100
AcDbEntity
  8
DEFPOINTS
  6
BYBLOCK
 62
     0
100
AcDbPoint
 10
2963.554639
 20
461.626282
 30
0.0
  0
ENDBLK
  5
2F3E
100
AcDbEntity
  8
0
100
AcDbBlockEnd
  0
BLOCK
  5
3976
100
AcDbEntity
  8
0
100
AcDbBlockBegin
  2
*D26
 70
    65
 10
0.0
 20
0.0
 30
0.0
  3
*D26
  1

  0
LINE
  5
3977
100
AcDbEntity
  8
0
  6
BYBLOCK
 62
     0
100
AcDbLine
 10
3420.013033
 20
2504.324238
 30
0.0
 11
3420.013033
 21
2451.694222
 31
0.0
  0
LINE
  5
3978
100
AcDbEntity
  8
0
  6
BYBLOCK
 62
     0
100
AcDbLine
 10
4328.013033
 20
2546.824238
 30
0.0
 11
4328.013033
 21
2451.694222
 31
0.0
  0
LINE
  5
3979
100
AcDbEntity
  8
0
  6
BYBLOCK
 62
     0
100
AcDbLine
 10
3422.513033
 20
2452.944222
 30
0.0
 11
4325.513033
 21
2452.944222
 31
0.0
  0
SOLID
  5
397A
100
AcDbEntity
  8
0
  6
BYBLOCK
 62
     0
100
AcDbTrace
 10
3422.513033
 20
2453.360888
 30
0.0
 11
3422.513033
 21
2452.527555
 31
0.0
 12
3420.013033
 22
2452.944222
 32
0.0
 13
3420.013033
 23
2452.944222
 33
0.0
  0
SOLID
  5
397B
100
AcDbEntity
  8
0
  6
BYBLOCK
 62
     0
100
AcDbTrace
 10
4325.513033
 20
2453.360888
 30
0.0
 11
4325.513033
 21
2452.527555
 31
0.0
 12
4328.013033
 22
2452.944222
 32
0.0
 13
4328.013033
 23
2452.944222
 33
0.0
  0
MTEXT
  5
397C
100
AcDbEntity
  8
0
  6
BYBLOCK
 62
     0
100
AcDbMText
 10
3874.013033
 20
2463.569222
 30
0.0
 40
20.0
 41
0.0
 71
     5
 72
     1
  1
\A1;75'-8"
  0
POINT
  5
397D
100
AcDbEntity
  8
DEFPOINTS
  6
BYBLOCK
 62
     0
100
AcDbPoint
 10
3420.013033
 20
2504.949238
 30
0.0
  0
POINT
  5
397E
100
AcDbEntity
  8
DEFPOINTS
  6
BYBLOCK
 62
     0
100
AcDbPoint
 10
4328.013033
 20
2547.449238
 30
0.0
  0
POINT
  5
397F
100
AcDbEntity
  8
DEFPOINTS
  6
BYBLOCK
 62
     0
100
AcDbPoint
 10
4328.013033
 20
2452.944222
 30
0.0
  0
ENDBLK
  5
3980
100
AcDbEntity
  8
0
100
AcDbBlockEnd
  0
BLOCK
  5
3982
100
AcDbEntity
  8
0
100
AcDbBlockBegin
  2
*D27
 70
    65
 10
0.0
 20
0.0
 30
0.0
  3
*D27
  1

  0
LINE
  5
3983
100
AcDbEntity
  8
0
  6
BYBLOCK
 62
     0
100
AcDbLine
 10
3707.513033
 20
2875.324238
 30
0.0
 11
3707.513033
 21
2823.589232
 31
0.0
  0
LINE
  5
3984
100
AcDbEntity
  8
0
  6
BYBLOCK
 62
     0
100
AcDbLine
 10
3420.013033
 20
2875.324238
 30
0.0
 11
3420.013033
 21
2823.589232
 31
0.0
  0
LINE
  5
3985
100
AcDbEntity
  8
0
  6
BYBLOCK
 62
     0
100
AcDbLine
 10
3705.013033
 20
2824.839232
 30
0.0
 11
3422.513033
 21
2824.839232
 31
0.0
  0
SOLID
  5
3986
100
AcDbEntity
  8
0
  6
BYBLOCK
 62
     0
100
AcDbTrace
 10
3705.013033
 20
2825.255898
 30
0.0
 11
3705.013033
 21
2824.422565
 31
0.0
 12
3707.513033
 22
2824.839232
 32
0.0
 13
3707.513033
 23
2824.839232
 33
0.0
  0
SOLID
  5
3987
100
AcDbEntity
  8
0
  6
BYBLOCK
 62
     0
100
AcDbTrace
 10
3422.513033
 20
2825.255898
 30
0.0
 11
3422.513033
 21
2824.422565
 31
0.0
 12
3420.013033
 22
2824.839232
 32
0.0
 13
3420.013033
 23
2824.839232
 33
0.0
  0
MTEXT
  5
3988
100
AcDbEntity
  8
0
  6
BYBLOCK
 62
     0
100
AcDbMText
 10
3563.763033
 20
2835.464232
 30
0.0
 40
20.0
 41
0.0
 71
     5
 72
     1
  1
\A1;23'-11 1/2"
  0
POINT
  5
3989
100
AcDbEntity
  8
DEFPOINTS
  6
BYBLOCK
 62
     0
100
AcDbPoint
 10
3707.513033
 20
2875.949238
 30
0.0
  0
POINT
  5
398A
100
AcDbEntity
  8
DEFPOINTS
  6
BYBLOCK
 62
     0
100
AcDbPoint
 10
3420.013033
 20
2875.949238
 30
0.0
  0
POINT
  5
398B
100
AcDbEntity
  8
DEFPOINTS
  6
BYBLOCK
 62
     0
100
AcDbPoint
 10
3420.013033
 20
2824.839232
 30
0.0
  0
ENDBLK
  5
398C
100
AcDbEntity
  8
0
100
AcDbBlockEnd
  0
BLOCK
  5
398E
100
AcDbEntity
  8
0
100
AcDbBlockBegin
  2
*D28
 70
    65
 10
0.0
 20
0.0
 30
0.0
  3
*D28
  1

  0
LINE
  5
398F
100
AcDbEntity
  8
0
  6
BYBLOCK
 62
     0
100
AcDbLine
 10
3419.388033
 20
2727.949238
 30
0.0
 11
3365.64778
 21
2727.949238
 31
0.0
  0
LINE
  5
3990
100
AcDbEntity
  8
0
  6
BYBLOCK
 62
     0
100
AcDbLine
 10
3419.388033
 20
3127.949238
 30
0.0
 11
3365.64778
 21
3127.949238
 31
0.0
  0
LINE
  5
3991
100
AcDbEntity
  8
0
  6
BYBLOCK
 62
     0
100
AcDbLine
 10
3366.89778
 20
2730.449238
 30
0.0
 11
3366.89778
 21
3125.449238
 31
0.0
  0
SOLID
  5
3992
100
AcDbEntity
  8
0
  6
BYBLOCK
 62
     0
100
AcDbTrace
 10
3366.481114
 20
2730.449238
 30
0.0
 11
3367.314447
 21
2730.449238
 31
0.0
 12
3366.89778
 22
2727.949238
 32
0.0
 13
3366.89778
 23
2727.949238
 33
0.0
  0
SOLID
  5
3993
100
AcDbEntity
  8
0
  6
BYBLOCK
 62
     0
100
AcDbTrace
 10
3366.481114
 20
3125.449238
 30
0.0
 11
3367.314447
 21
3125.449238
 31
0.0
 12
3366.89778
 22
3127.949238
 32
0.0
 13
3366.89778
 23
3127.949238
 33
0.0
  0
MTEXT
  5
3994
100
AcDbEntity
  8
0
  6
BYBLOCK
 62
     0
100
AcDbMText
 10
3356.27278
 20
2927.949238
 30
0.0
 40
20.0
 41
0.0
 71
     5
 72
     1
  1
\A1;33'-4"
 11
0.0
 21
1.0
 31
0.0
  0
POINT
  5
3995
100
AcDbEntity
  8
DEFPOINTS
  6
BYBLOCK
 62
     0
100
AcDbPoint
 10
3420.013033
 20
2727.949238
 30
0.0
  0
POINT
  5
3996
100
AcDbEntity
  8
DEFPOINTS
  6
BYBLOCK
 62
     0
100
AcDbPoint
 10
3420.013033
 20
3127.949238
 30
0.0
  0
POINT
  5
3997
100
AcDbEntity
  8
DEFPOINTS
  6
BYBLOCK
 62
     0
100
AcDbPoint
 10
3366.89778
 20
3127.949238
 30
0.0
  0
ENDBLK
  5
3998
100
AcDbEntity
  8
0
100
AcDbBlockEnd
  0
BLOCK
  5
399A
100
AcDbEntity
  8
0
100
AcDbBlockBegin
  2
*D29
 70
    65
 10
0.0
 20
0.0
 30
0.0
  3
*D29
  1

  0
LINE
  5
399B
100
AcDbEntity
  8
0
  6
BYBLOCK
 62
     0
100
AcDbLine
 10
3614.388033
 20
3008.949238
 30
0.0
 11
3547.590266
 21
3008.949238
 31
0.0
  0
LINE
  5
399C
100
AcDbEntity
  8
0
  6
BYBLOCK
 62
     0
100
AcDbLine
 10
3614.388033
 20
2504.949238
 30
0.0
 11
3547.590266
 21
2504.949238
 31
0.0
  0
LINE
  5
399D
100
AcDbEntity
  8
0
  6
BYBLOCK
 62
     0
100
AcDbLine
 10
3548.840266
 20
3006.449238
 30
0.0
 11
3548.840266
 21
2507.449238
 31
0.0
  0
SOLID
  5
399E
100
AcDbEntity
  8
0
  6
BYBLOCK
 62
     0
100
AcDbTrace
 10
3548.4236
 20
3006.449238
 30
0.0
 11
3549.256933
 21
3006.449238
 31
0.0
 12
3548.840266
 22
3008.949238
 32
0.0
 13
3548.840266
 23
3008.949238
 33
0.0
  0
SOLID
  5
399F
100
AcDbEntity
  8
0
  6
BYBLOCK
 62
     0
100
AcDbTrace
 10
3548.4236
 20
2507.449238
 30
0.0
 11
3549.256933
 21
2507.449238
 31
0.0
 12
3548.840266
 22
2504.949238
 32
0.0
 13
3548.840266
 23
2504.949238
 33
0.0
  0
MTEXT
  5
39A0
100
AcDbEntity
  8
0
  6
BYBLOCK
 62
     0
100
AcDbMText
 10
3538.215266
 20
2756.949238
 30
0.0
 40
20.0
 41
0.0
 71
     5
 72
     1
  1
\A1;42'
 11
0.0
 21
1.0
 31
0.0
  0
POINT
  5
39A1
100
AcDbEntity
  8
DEFPOINTS
  6
BYBLOCK
 62
     0
100
AcDbPoint
 10
3615.013033
 20
3008.949238
 30
0.0
  0
POINT
  5
39A2
100
AcDbEntity
  8
DEFPOINTS
  6
BYBLOCK
 62
     0
100
AcDbPoint
 10
3615.013033
 20
2504.949238
 30
0.0
  0
POINT
  5
39A3
100
AcDbEntity
  8
DEFPOINTS
  6
BYBLOCK
 62
     0
100
AcDbPoint
 10
3548.840266
 20
2504.949238
 30
0.0
  0
ENDBLK
  5
39A4
100
AcDbEntity
  8
0
100
AcDbBlockEnd
  0
BLOCK
  5
39A6
100
AcDbEntity
  8
0
100
AcDbBlockBegin
  2
*D30
 70
    65
 10
0.0
 20
0.0
 30
0.0
  3
*D30
  1

  0
LINE
  5
39A7
100
AcDbEntity
  8
0
  6
BYBLOCK
 62
     0
100
AcDbLine
 10
3419.388033
 20
2504.949238
 30
0.0
 11
3366.064447
 21
2504.949238
 31
0.0
  0
LINE
  5
39A8
100
AcDbEntity
  8
0
  6
BYBLOCK
 62
     0
100
AcDbLine
 10
3419.388033
 20
2727.949238
 30
0.0
 11
3366.064447
 21
2727.949238
 31
0.0
  0
LINE
  5
39A9
100
AcDbEntity
  8
0
  6
BYBLOCK
 62
     0
100
AcDbLine
 10
3367.314447
 20
2507.449238
 30
0.0
 11
3367.314447
 21
2725.449238
 31
0.0
  0
SOLID
  5
39AA
100
AcDbEntity
  8
0
  6
BYBLOCK
 62
     0
100
AcDbTrace
 10
3366.89778
 20
2507.449238
 30
0.0
 11
3367.731114
 21
2507.449238
 31
0.0
 12
3367.314447
 22
2504.949238
 32
0.0
 13
3367.314447
 23
2504.949238
 33
0.0
  0
SOLID
  5
39AB
100
AcDbEntity
  8
0
  6
BYBLOCK
 62
     0
100
AcDbTrace
 10
3366.89778
 20
2725.449238
 30
0.0
 11
3367.731114
 21
2725.449238
 31
0.0
 12
3367.314447
 22
2727.949238
 32
0.0
 13
3367.314447
 23
2727.949238
 33
0.0
  0
MTEXT
  5
39AC
100
AcDbEntity
  8
0
  6
BYBLOCK
 62
     0
100
AcDbMText
 10
3356.689447
 20
2616.449238
 30
0.0
 40
20.0
 41
0.0
 71
     5
 72
     1
  1
\A1;18'-7"
 11
0.0
 21
1.0
 31
0.0
  0
POINT
  5
39AD
100
AcDbEntity
  8
DEFPOINTS
  6
BYBLOCK
 62
     0
100
AcDbPoint
 10
3420.013033
 20
2504.949238
 30
0.0
  0
POINT
  5
39AE
100
AcDbEntity
  8
DEFPOINTS
  6
BYBLOCK
 62
     0
100
AcDbPoint
 10
3420.013033
 20
2727.949238
 30
0.0
  0
POINT
  5
39AF
100
AcDbEntity
  8
DEFPOINTS
  6
BYBLOCK
 62
     0
100
AcDbPoint
 10
3367.314447
 20
2727.949238
 30
0.0
  0
ENDBLK
  5
39B0
100
AcDbEntity
  8
0
100
AcDbBlockEnd
  0
BLOCK
  5
39B2
100
AcDbEntity
  8
0
100
AcDbBlockBegin
  2
*D31
 70
    65
 10
0.0
 20
0.0
 30
0.0
  3
*D31
  1

  0
LINE
  5
39B3
100
AcDbEntity
  8
0
  6
BYBLOCK
 62
     0
100
AcDbLine
 10
3615.013033
 20
3009.574238
 30
0.0
 11
3615.013033
 21
3070.145328
 31
0.0
  0
LINE
  5
39B4
100
AcDbEntity
  8
0
  6
BYBLOCK
 62
     0
100
AcDbLine
 10
3420.013033
 20
3009.574238
 30
0.0
 11
3420.013033
 21
3070.145328
 31
0.0
  0
LINE
  5
39B5
100
AcDbEntity
  8
0
  6
BYBLOCK
 62
     0
100
AcDbLine
 10
3612.513033
 20
3068.895328
 30
0.0
 11
3422.513033
 21
3068.895328
 31
0.0
  0
SOLID
  5
39B6
100
AcDbEntity
  8
0
  6
BYBLOCK
 62
     0
100
AcDbTrace
 10
3612.513033
 20
3069.311995
 30
0.0
 11
3612.513033
 21
3068.478662
 31
0.0
 12
3615.013033
 22
3068.895328
 32
0.0
 13
3615.013033
 23
3068.895328
 33
0.0
  0
SOLID
  5
39B7
100
AcDbEntity
  8
0
  6
BYBLOCK
 62
     0
100
AcDbTrace
 10
3422.513033
 20
3069.311995
 30
0.0
 11
3422.513033
 21
3068.478662
 31
0.0
 12
3420.013033
 22
3068.895328
 32
0.0
 13
3420.013033
 23
3068.895328
 33
0.0
  0
MTEXT
  5
39B8
100
AcDbEntity
  8
0
  6
BYBLOCK
 62
     0
100
AcDbMText
 10
3517.513033
 20
3079.520328
 30
0.0
 40
20.0
 41
0.0
 71
     5
 72
     1
  1
\A1;16'-3"
  0
POINT
  5
39B9
100
AcDbEntity
  8
DEFPOINTS
  6
BYBLOCK
 62
     0
100
AcDbPoint
 10
3615.013033
 20
3008.949238
 30
0.0
  0
POINT
  5
39BA
100
AcDbEntity
  8
DEFPOINTS
  6
BYBLOCK
 62
     0
100
AcDbPoint
 10
3420.013033
 20
3008.949238
 30
0.0
  0
POINT
  5
39BB
100
AcDbEntity
  8
DEFPOINTS
  6
BYBLOCK
 62
     0
100
AcDbPoint
 10
3420.013033
 20
3068.895328
 30
0.0
  0
ENDBLK
  5
39BC
100
AcDbEntity
  8
0
100
AcDbBlockEnd
  0
BLOCK
  5
39BE
100
AcDbEntity
  8
0
100
AcDbBlockBegin
  2
*D32
 70
    65
 10
0.0
 20
0.0
 30
0.0
  3
*D32
  1

  0
LINE
  5
39BF
100
AcDbEntity
  8
0
  6
BYBLOCK
 62
     0
100
AcDbLine
 10
3419.388033
 20
3127.949238
 30
0.0
 11
3365.231114
 21
3127.949238
 31
0.0
  0
LINE
  5
39C0
100
AcDbEntity
  8
0
  6
BYBLOCK
 62
     0
100
AcDbLine
 10
3419.388033
 20
3262.449238
 30
0.0
 11
3365.231114
 21
3262.449238
 31
0.0
  0
LINE
  5
39C1
100
AcDbEntity
  8
0
  6
BYBLOCK
 62
     0
100
AcDbLine
 10
3366.481114
 20
3130.449238
 30
0.0
 11
3366.481114
 21
3259.949238
 31
0.0
  0
LINE
  5
39C2
100
AcDbEntity
  8
0
  6
BYBLOCK
 62
     0
100
AcDbLine
 10
3366.481114
 20
3262.449238
 30
0.0
 11
3366.481114
 21
3422.865905
 31
0.0
  0
SOLID
  5
39C3
100
AcDbEntity
  8
0
  6
BYBLOCK
 62
     0
100
AcDbTrace
 10
3366.064447
 20
3130.449238
 30
0.0
 11
3366.89778
 21
3130.449238
 31
0.0
 12
3366.481114
 22
3127.949238
 32
0.0
 13
3366.481114
 23
3127.949238
 33
0.0
  0
SOLID
  5
39C4
100
AcDbEntity
  8
0
  6
BYBLOCK
 62
     0
100
AcDbTrace
 10
3366.064447
 20
3259.949238
 30
0.0
 11
3366.89778
 21
3259.949238
 31
0.0
 12
3366.481114
 22
3262.449238
 32
0.0
 13
3366.481114
 23
3262.449238
 33
0.0
  0
MTEXT
  5
39C5
100
AcDbEntity
  8
0
  6
BYBLOCK
 62
     0
100
AcDbMText
 10
3355.856114
 20
3343.907572
 30
0.0
 40
20.0
 41
0.0
 71
     5
 72
     1
  1
\A1;11'-2 1/2"
 11
0.0
 21
1.0
 31
0.0
  0
POINT
  5
39C6
100
AcDbEntity
  8
DEFPOINTS
  6
BYBLOCK
 62
     0
100
AcDbPoint
 10
3420.013033
 20
3127.949238
 30
0.0
  0
POINT
  5
39C7
100
AcDbEntity
  8
DEFPOINTS
  6
BYBLOCK
 62
     0
100
AcDbPoint
 10
3420.013033
 20
3262.449238
 30
0.0
  0
POINT
  5
39C8
100
AcDbEntity
  8
DEFPOINTS
  6
BYBLOCK
 62
     0
100
AcDbPoint
 10
3366.481114
 20
3262.449238
 30
0.0
  0
ENDBLK
  5
39C9
100
AcDbEntity
  8
0
100
AcDbBlockEnd
  0
BLOCK
  5
39CB
100
AcDbEntity
  8
0
100
AcDbBlockBegin
  2
*D33
 70
    65
 10
0.0
 20
0.0
 30
0.0
  3
*D33
  1

  0
LINE
  5
39CC
100
AcDbEntity
  8
0
  6
BYBLOCK
 62
     0
100
AcDbLine
 10
3708.138033
 20
2875.949238
 30
0.0
 11
3754.888628
 21
2875.949238
 31
0.0
  0
LINE
  5
39CD
100
AcDbEntity
  8
0
  6
BYBLOCK
 62
     0
100
AcDbLine
 10
3708.138033
 20
2504.949238
 30
0.0
 11
3754.888628
 21
2504.949238
 31
0.0
  0
LINE
  5
39CE
100
AcDbEntity
  8
0
  6
BYBLOCK
 62
     0
100
AcDbLine
 10
3753.638628
 20
2873.449238
 30
0.0
 11
3753.638628
 21
2507.449238
 31
0.0
  0
SOLID
  5
39CF
100
AcDbEntity
  8
0
  6
BYBLOCK
 62
     0
100
AcDbTrace
 10
3753.221962
 20
2873.449238
 30
0.0
 11
3754.055295
 21
2873.449238
 31
0.0
 12
3753.638628
 22
2875.949238
 32
0.0
 13
3753.638628
 23
2875.949238
 33
0.0
  0
SOLID
  5
39D0
100
AcDbEntity
  8
0
  6
BYBLOCK
 62
     0
100
AcDbTrace
 10
3753.221962
 20
2507.449238
 30
0.0
 11
3754.055295
 21
2507.449238
 31
0.0
 12
3753.638628
 22
2504.949238
 32
0.0
 13
3753.638628
 23
2504.949238
 33
0.0
  0
MTEXT
  5
39D1
100
AcDbEntity
  8
0
  6
BYBLOCK
 62
     0
100
AcDbMText
 10
3743.013628
 20
2690.449238
 30
0.0
 40
20.0
 41
0.0
 71
     5
 72
     1
  1
\A1;30'-11"
 11
0.0
 21
1.0
 31
0.0
  0
POINT
  5
39D2
100
AcDbEntity
  8
DEFPOINTS
  6
BYBLOCK
 62
     0
100
AcDbPoint
 10
3707.513033
 20
2875.949238
 30
0.0
  0
POINT
  5
39D3
100
AcDbEntity
  8
DEFPOINTS
  6
BYBLOCK
 62
     0
100
AcDbPoint
 10
3707.513033
 20
2504.949238
 30
0.0
  0
POINT
  5
39D4
100
AcDbEntity
  8
DEFPOINTS
  6
BYBLOCK
 62
     0
100
AcDbPoint
 10
3753.638628
 20
2504.949238
 30
0.0
  0
ENDBLK
  5
39D5
100
AcDbEntity
  8
0
100
AcDbBlockEnd
  0
ENDSEC
  0
SECTION
  2
ENTITIES
  0
INSERT
  5
34A
100
AcDbEntity
  8
A4
 62
     4
100
AcDbBlockReference
  2
A4
 10
0.0
 20
0.0
 30
0.0
  0
INSERT
  5
34B
100
AcDbEntity
  8
A4
 62
     4
100
AcDbBlockReference
  2
A4
 10
262.356949
 20
188.993351
 30
0.0
  0
INSERT
  5
34C
100
AcDbEntity
  8
A4
 62
     4
100
AcDbBlockReference
  2
A4
 10
512.824165
 20
157.185919
 30
0.0
  0
INSERT
  5
34D
100
AcDbEntity
  8
A4
 62
     4
100
AcDbBlockReference
  2
A4
 10
678.059192
 20
13.076607
 30
0.0
  0
INSERT
  5
34E
100
AcDbEntity
  8
A4
 62
     4
100
AcDbBlockReference
  2
A4
 10
242.862676
 20
371.025553
 30
0.0
  0
INSERT
  5
34F
100
AcDbEntity
  8
A4
 62
     4
100
AcDbBlockReference
  2
A4
 10
-13.135272
 20
568.594778
 30
0.0
  0
INSERT
  5
350
100
AcDbEntity
  8
A4
 62
     4
100
AcDbBlockReference
  2
A4
 10
-20.117043
 20
373.349897
 30
0.0
  0
LINE
  5
149A
100
AcDbEntity
  8
A4
  6
ACAD_ISO02W100
 62
   252
100
AcDbLine
 10
5149.062922
 20
1128.629871
 30
0.0
 11
5149.062922
 21
832.629871
 31
0.0
  0
LINE
  5
149B
100
AcDbEntity
  8
A4
  6
ACAD_ISO02W100
 62
   250
100
AcDbLine
 10
4940.062922
 20
1148.555348
 30
0.0
 11
4940.062922
 21
852.555348
 31
0.0
  0
LINE
  5
149C
100
AcDbEntity
  8
A4
  6
ACAD_ISO02W100
 62
   250
100
AcDbLine
 10
5149.062922
 20
1148.555348
 30
0.0
 11
4940.062922
 21
1148.555348
 31
0.0
  0
LINE
  5
149D
100
AcDbEntity
  8
A4
  6
ACAD_ISO02W100
 62
   250
100
AcDbLine
 10
5149.062922
 20
852.555348
 30
0.0
 11
4940.062922
 21
852.555348
 31
0.0
  0
LINE
  5
149E
100
AcDbEntity
  8
A4
  6
ACAD_ISO02W100
 62
   250
100
AcDbLine
 10
7098.062922
 20
1148.555348
 30
0.0
 11
7098.062922
 21
852.555348
 31
0.0
  0
LINE
  5
149F
100
AcDbEntity
  8
A4
  6
ACAD_ISO02W100
 62
   252
100
AcDbLine
 10
6889.062922
 20
1148.555348
 30
0.0
 11
6889.062922
 21
852.555348
 31
0.0
  0
LINE
  5
14A0
100
AcDbEntity
  8
A4
  6
ACAD_ISO02W100
 62
   250
100
AcDbLine
 10
7098.062922
 20
1148.555348
 30
0.0
 11
6889.062922
 21
1148.555348
 31
0.0
  0
LINE
  5
14A1
100
AcDbEntity
  8
A4
  6
ACAD_ISO02W100
 62
   250
100
AcDbLine
 10
7098.062922
 20
852.555348
 30
0.0
 11
6889.062922
 21
852.555348
 31
0.0
  0
LINE
  5
14AE
100
AcDbEntity
  8
COTAS
  6
ACAD_ISO02W100
 62
   252
100
AcDbLine
 10
3012.66687
 20
3429.783535
 30
0.0
 11
3012.66687
 21
2626.783535
 31
0.0
  0
LINE
  5
14AF
100
AcDbEntity
  8
VELA
 62
   250
100
AcDbLine
 10
2640.531088
 20
3151.641954
 30
0.0
 11
2733.031088
 21
3018.641954
 31
0.0
  0
LINE
  5
14B0
100
AcDbEntity
  8
VELA
 62
   250
100
AcDbLine
 10
2633.963343
 20
3147.074161
 30
0.0
 11
2726.463343
 21
3014.074161
 31
0.0
  0
LINE
  5
14B1
100
AcDbEntity
  8
COTAS
  6
ACAD_ISO02W100
 62
   252
100
AcDbLine
 10
3012.66687
 20
2626.783535
 30
0.0
 11
2432.66687
 21
2626.783535
 31
0.0
  0
POINT
  5
14B2
100
AcDbEntity
  8
PUNTOS
 62
   252
100
AcDbPoint
 10
2642.247216
 20
2824.358058
 30
0.0
  0
ARC
  5
14B3
100
AcDbEntity
  8
VELA
 62
   250
100
AcDbCircle
 10
2836.559716
 20
2431.733058
 30
0.0
 40
438.07732
100
AcDbArc
 50
109.233724
 51
123.896379
  0
ARC
  5
14B4
100
AcDbEntity
  8
VELAMARGEN
 62
   250
100
AcDbCircle
 10
2836.53773
 20
2431.752952
 30
0.0
 40
433.060764
100
AcDbArc
 50
109.191402
 51
123.941398
  0
LINE
  5
14B5
100
AcDbEntity
  8
VELA
 62
   250
100
AcDbLine
 10
2637.247216
 20
3149.358058
 30
0.0
 11
2729.747216
 21
3016.358058
 31
0.0
  0
LINE
  5
14B6
100
AcDbEntity
  8
VELA
 62
   250
100
AcDbLine
 10
2636.247216
 20
3286.358058
 30
0.0
 11
2692.247216
 21
3248.358058
 31
0.0
  0
ARC
  5
14B7
100
AcDbEntity
  8
VELAMARGEN
 62
   250
100
AcDbCircle
 10
1044.702805
 20
879.309942
 30
0.0
 40
2892.61712
100
AcDbArc
 50
55.181214
 51
57.566735
  0
POINT
  5
14B8
100
AcDbEntity
  8
PUNTOS
 62
     1
100
AcDbPoint
 10
2636.247216
 20
3286.358058
 30
0.0
  0
LINE
  5
14B9
100
AcDbEntity
  8
VELA
 62
   250
100
AcDbLine
 10
2442.247216
 20
3409.858058
 30
0.0
 11
2442.247216
 21
2645.358058
 31
0.0
  0
LINE
  5
14BA
100
AcDbEntity
  8
VELAMARGEN
 62
   250
100
AcDbLine
 10
2436.247216
 20
2640.358058
 30
0.0
 11
2436.247216
 21
3409.858058
 31
0.0
  0
LINE
  5
14BB
100
AcDbEntity
  8
VELAMARGEN
  6
ACAD_ISO07W100
 62
   250
100
AcDbLine
 10
2448.247216
 20
2640.358058
 30
0.0
 11
2448.247216
 21
3409.858058
 31
0.0
  0
ARC
  5
14BC
100
AcDbEntity
  8
VELA
 62
   250
100
AcDbCircle
 10
2867.650462
 20
2390.910731
 30
0.0
 40
489.6986
100
AcDbArc
 50
131.643748
 51
148.694585
  0
ARC
  5
14BE
100
AcDbEntity
  8
VELA
 62
   250
100
AcDbCircle
 10
2852.591447
 20
2405.531135
 30
0.0
 40
468.768758
100
AcDbArc
 50
123.73681
 51
140.237615
  0
ARC
  5
14BF
100
AcDbEntity
  8
VELAMARGEN
 62
   250
100
AcDbCircle
 10
2852.33435
 20
2405.821068
 30
0.0
 40
463.396086
100
AcDbArc
 50
123.689184
 51
140.2844
  0
POINT
  5
14C0
100
AcDbEntity
  8
PUNTOS
 62
   252
100
AcDbPoint
 10
2492.247216
 20
2705.358058
 30
0.0
  0
ARC
  5
14C1
100
AcDbEntity
  8
VELAMARGEN
 62
   250
100
AcDbCircle
 10
2868.338798
 20
2390.492967
 30
0.0
 40
485.503946
100
AcDbArc
 50
140.027849
 51
149.02587
  0
POINT
  5
14C3
100
AcDbEntity
  8
PUNTOS
 62
   252
100
AcDbPoint
 10
2442.247216
 20
2645.358058
 30
0.0
  0
POINT
  5
14C5
100
AcDbEntity
  8
PUNTOS
 62
   252
100
AcDbPoint
 10
2442.247216
 20
2645.358058
 30
0.0
  0
POINT
  5
14C6
100
AcDbEntity
  8
PUNTOS
 62
   252
100
AcDbPoint
 10
2449.247216
 20
2645.358058
 30
0.0
  0
LINE
  5
14C7
100
AcDbEntity
  8
VELAMARGEN
 62
   250
100
AcDbLine
 10
2449.247216
 20
2640.358058
 30
0.0
 11
2436.247216
 21
2640.358058
 31
0.0
  0
LINE
  5
14C8
100
AcDbEntity
  8
VELA
 62
   250
100
AcDbLine
 10
2449.247216
 20
2645.358058
 30
0.0
 11
2442.247216
 21
2645.358058
 31
0.0
  0
LINE
  5
14C9
100
AcDbEntity
  8
VELAMARGEN
 62
   250
100
AcDbLine
 10
2452.067831
 20
2640.358058
 30
0.0
 11
2449.247216
 21
2640.358058
 31
0.0
  0
POINT
  5
14CD
100
AcDbEntity
  8
PUNTOS
 62
     1
100
AcDbPoint
 10
2442.247216
 20
2868.358058
 30
0.0
  0
POINT
  5
14CE
100
AcDbEntity
  8
PUNTOS
 62
   252
100
AcDbPoint
 10
2542.247216
 20
2756.858058
 30
0.0
  0
POINT
  5
14CF
100
AcDbEntity
  8
PUNTOS
 62
   252
100
AcDbPoint
 10
2592.247216
 20
2795.358058
 30
0.0
  0
POINT
  5
14D0
100
AcDbEntity
  8
PUNTOS
 62
   252
100
AcDbPoint
 10
2637.247216
 20
3149.358058
 30
0.0
  0
LINE
  5
14D1
100
AcDbEntity
  8
VELA
 62
   250
100
AcDbLine
 10
2640.531088
 20
3151.641954
 30
0.0
 11
2633.963343
 21
3147.074161
 31
0.0
  0
POINT
  5
14D2
100
AcDbEntity
  8
PUNTOS
 62
   252
100
AcDbPoint
 10
2492.247216
 20
3377.858058
 30
0.0
  0
LINE
  5
14D3
100
AcDbEntity
  8
VELA
 62
   250
100
AcDbLine
 10
2467.247216
 20
3395.358058
 30
0.0
 11
2492.247216
 21
3377.858058
 31
0.0
  0
ARC
  5
14D4
100
AcDbEntity
  8
VELAMARGEN
 62
   250
100
AcDbCircle
 10
1494.643729
 20
1980.738875
 30
0.0
 40
1723.713154
100
AcDbArc
 50
54.486655
 51
56.00572
  0
POINT
  5
14D5
100
AcDbEntity
  8
PUNTOS
 62
     1
100
AcDbPoint
 10
2442.247216
 20
3268.358058
 30
0.0
  0
POINT
  5
14D8
100
AcDbEntity
  8
PUNTOS
 62
   252
100
AcDbPoint
 10
2467.247216
 20
3395.358058
 30
0.0
  0
POINT
  5
14D9
100
AcDbEntity
  8
PUNTOS
 62
   252
100
AcDbPoint
 10
2456.247216
 20
3402.858058
 30
0.0
  0
LINE
  5
14DC
100
AcDbEntity
  8
VELA
 62
   250
100
AcDbLine
 10
2458.389234
 20
3409.858058
 30
0.0
 11
2436.247216
 21
3409.858058
 31
0.0
  0
LINE
  5
14DD
100
AcDbEntity
  8
VELA
 62
   250
100
AcDbLine
 10
2456.247216
 20
3402.858058
 30
0.0
 11
2467.247216
 21
3395.358058
 31
0.0
  0
LINE
  5
14DE
100
AcDbEntity
  8
VELA
 62
   250
100
AcDbLine
 10
2456.247216
 20
3402.858058
 30
0.0
 11
2442.247216
 21
3402.858058
 31
0.0
  0
POINT
  5
14E2
100
AcDbEntity
  8
PUNTOS
 62
   252
100
AcDbPoint
 10
2592.247216
 20
3314.858058
 30
0.0
  0
LINE
  5
14E3
100
AcDbEntity
  8
VELA
 62
   250
100
AcDbLine
 10
2592.247216
 20
3314.858058
 30
0.0
 11
2636.247216
 21
3286.358058
 31
0.0
  0
POINT
  5
14E4
100
AcDbEntity
  8
PUNTOS
 62
   252
100
AcDbPoint
 10
2642.247216
 20
3282.358058
 30
0.0
  0
ARC
  5
14E5
100
AcDbEntity
  8
VELA
 62
   250
100
AcDbCircle
 10
342.287216
 20
-145.641942
 30
0.0
 40
4127.636158
100
AcDbArc
 50
56.968742
 51
58.609403
  0
ARC
  5
14E6
100
AcDbEntity
  8
VELAMARGEN
 62
   250
100
AcDbCircle
 10
341.816514
 20
-146.40075
 30
0.0
 40
4135.5289
100
AcDbArc
 50
56.969015
 51
58.608619
  0
POINT
  5
14E7
100
AcDbEntity
  8
PUNTOS
 62
   252
100
AcDbPoint
 10
2542.247216
 20
3346.858058
 30
0.0
  0
ARC
  5
14EB
100
AcDbEntity
  8
VELA
 62
   250
100
AcDbCircle
 10
2814.547216
 20
2015.524724
 30
0.0
 40
862.340991
100
AcDbArc
 50
78.108034
 51
84.830435
  0
ARC
  5
14EC
100
AcDbEntity
  8
VELAMARGEN
 62
   250
100
AcDbCircle
 10
2813.578659
 20
2010.137773
 30
0.0
 40
862.81406
100
AcDbArc
 50
78.109087
 51
84.768752
  0
LINE
  5
14ED
100
AcDbEntity
  8
VELA
 62
   250
100
AcDbLine
 10
2992.247216
 20
2859.358058
 30
0.0
 11
2942.247216
 21
2868.358058
 31
0.0
  0
LINE
  5
14EE
100
AcDbEntity
  8
VELA
 62
   250
100
AcDbLine
 10
2842.247216
 20
2874.358058
 30
0.0
 11
2792.247216
 21
2871.358058
 31
0.0
  0
ARC
  5
14EF
100
AcDbEntity
  8
VELA
 62
   250
100
AcDbCircle
 10
2867.247216
 20
2039.524724
 30
0.0
 40
835.207576
100
AcDbArc
 50
88.284728
 51
95.151988
  0
ARC
  5
14F0
100
AcDbEntity
  8
VELAMARGEN
 62
   250
100
AcDbCircle
 10
2867.247662
 20
2031.943076
 30
0.0
 40
837.788032
100
AcDbArc
 50
88.290103
 51
95.068989
  0
POINT
  5
14F1
100
AcDbEntity
  8
PUNTOS
 62
     1
100
AcDbPoint
 10
2828.247216
 20
2876.858058
 30
0.0
  0
POINT
  5
14F2
100
AcDbEntity
  8
PUNTOS
 62
   252
100
AcDbPoint
 10
2692.247216
 20
2845.358058
 30
0.0
  0
ARC
  5
14F3
100
AcDbEntity
  8
VELAMARGEN
 62
   250
100
AcDbCircle
 10
2857.412514
 20
2415.508581
 30
0.0
 40
455.491309
100
AcDbArc
 50
98.101077
 51
110.999888
  0
ARC
  5
14F4
100
AcDbEntity
  8
VELA
 62
   250
100
AcDbCircle
 10
2857.513882
 20
2415.024724
 30
0.0
 40
460.977059
100
AcDbArc
 50
98.139477
 51
111.008955
  0
LINE
  5
14F5
100
AcDbEntity
  8
VELA
 62
   250
100
AcDbLine
 10
2742.247216
 20
2861.358058
 30
0.0
 11
2692.247216
 21
2845.358058
 31
0.0
  0
POINT
  5
14F6
100
AcDbEntity
  8
PUNTOS
 62
   252
100
AcDbPoint
 10
2742.247216
 20
2861.358058
 30
0.0
  0
POINT
  5
14F7
100
AcDbEntity
  8
PUNTOS
 62
   252
100
AcDbPoint
 10
2792.247216
 20
2871.358058
 30
0.0
  0
LINE
  5
14F8
100
AcDbEntity
  8
VELA
 62
   250
100
AcDbLine
 10
2792.247216
 20
2871.358058
 30
0.0
 11
2742.247216
 21
2861.358058
 31
0.0
  0
LINE
  5
14F9
100
AcDbEntity
  8
VELA
 62
   250
100
AcDbLine
 10
2892.247216
 20
2874.358058
 30
0.0
 11
2842.247216
 21
2874.358058
 31
0.0
  0
POINT
  5
14FA
100
AcDbEntity
  8
PUNTOS
 62
   252
100
AcDbPoint
 10
2842.247216
 20
2874.358058
 30
0.0
  0
POINT
  5
14FB
100
AcDbEntity
  8
PUNTOS
 62
   252
100
AcDbPoint
 10
2892.247216
 20
2874.358058
 30
0.0
  0
POINT
  5
14FC
100
AcDbEntity
  8
PUNTOS
 62
   252
100
AcDbPoint
 10
2942.247216
 20
2868.358058
 30
0.0
  0
LINE
  5
14FD
100
AcDbEntity
  8
VELA
 62
   250
100
AcDbLine
 10
2942.247216
 20
2868.358058
 30
0.0
 11
2892.247216
 21
2874.358058
 31
0.0
  0
ARC
  5
1503
100
AcDbEntity
  8
VELA
 62
   250
100
AcDbCircle
 10
2601.447216
 20
1465.858058
 30
0.0
 40
1447.26186
100
AcDbArc
 50
73.881812
 51
74.334117
  0
ARC
  5
1504
100
AcDbEntity
  8
VELAMARGEN
 62
   250
100
AcDbCircle
 10
2595.907405
 20
1449.561873
 30
0.0
 40
1459.471886
100
AcDbArc
 50
73.793931
 51
74.278815
  0
LINE
  5
1505
100
AcDbEntity
  8
VELA
 62
   250
100
AcDbLine
 10
3003.235522
 20
2856.061566
 30
0.0
 11
2992.247216
 21
2859.358058
 31
0.0
  0
POINT
  5
150E
100
AcDbEntity
  8
PUNTOS
 62
   252
100
AcDbPoint
 10
2992.247216
 20
2859.358058
 30
0.0
  0
ARC
  5
151B
100
AcDbEntity
  8
VELAMARGEN
 62
   250
100
AcDbCircle
 10
-432.008245
 20
-1156.003253
 30
0.0
 40
5407.696056
100
AcDbArc
 50
50.561405
 51
51.3334
  0
LINE
  5
151C
100
AcDbEntity
  8
VELA
 62
   250
100
AcDbLine
 10
2942.247216
 20
3060.858058
 30
0.0
 11
2992.247216
 21
3020.358058
 31
0.0
  0
LINE
  5
151D
100
AcDbEntity
  8
VELA
 62
   250
100
AcDbLine
 10
2742.247216
 20
3212.358058
 30
0.0
 11
2792.247216
 21
3175.858058
 31
0.0
  0
ARC
  5
151E
100
AcDbEntity
  8
VELAMARGEN
 62
   250
100
AcDbCircle
 10
-2784.171787
 20
-4410.50156
 30
0.0
 40
9422.375459
100
AcDbArc
 50
53.681523
 51
54.433437
  0
LINE
  5
151F
100
AcDbEntity
  8
VELA
 62
   250
100
AcDbLine
 10
2792.247216
 20
3175.858058
 30
0.0
 11
2842.247216
 21
3138.358058
 31
0.0
  0
LINE
  5
1520
100
AcDbEntity
  8
VELAMARGEN
 62
   250
100
AcDbLine
 10
2846.482908
 20
3143.93111
 30
0.0
 11
2796.447229
 21
3181.458048
 31
0.0
  0
POINT
  5
1521
100
AcDbEntity
  8
PUNTOS
 62
   252
100
AcDbPoint
 10
2729.747216
 20
3016.358058
 30
0.0
  0
LINE
  5
1522
100
AcDbEntity
  8
VELA
 62
   250
100
AcDbLine
 10
2733.031088
 20
3018.641954
 30
0.0
 11
2726.463343
 21
3014.074161
 31
0.0
  0
POINT
  5
1523
100
AcDbEntity
  8
PUNTOS
 62
   252
100
AcDbPoint
 10
2792.247216
 20
3175.858058
 30
0.0
  0
LINE
  5
1524
100
AcDbEntity
  8
VELA
 62
   250
100
AcDbLine
 10
2892.247216
 20
3100.358058
 30
0.0
 11
2942.247216
 21
3060.858058
 31
0.0
  0
LINE
  5
1525
100
AcDbEntity
  8
VELAMARGEN
 62
   250
100
AcDbLine
 10
2946.65321
 20
3066.29747
 30
0.0
 11
2896.586551
 21
3105.850795
 31
0.0
  0
POINT
  5
1526
100
AcDbEntity
  8
PUNTOS
 62
   252
100
AcDbPoint
 10
2942.247216
 20
3060.858058
 30
0.0
  0
LINE
  5
1527
100
AcDbEntity
  8
VELA
 62
   250
100
AcDbLine
 10
2842.247216
 20
3138.358058
 30
0.0
 11
2892.247216
 21
3100.358058
 31
0.0
  0
LINE
  5
1528
100
AcDbEntity
  8
VELAMARGEN
 62
   250
100
AcDbLine
 10
2896.586551
 20
3105.850795
 30
0.0
 11
2846.482908
 21
3143.93111
 31
0.0
  0
POINT
  5
1529
100
AcDbEntity
  8
PUNTOS
 62
   252
100
AcDbPoint
 10
2842.247216
 20
3138.358058
 30
0.0
  0
POINT
  5
152A
100
AcDbEntity
  8
PUNTOS
 62
   252
100
AcDbPoint
 10
2892.247216
 20
3100.358058
 30
0.0
  0
LINE
  5
152B
100
AcDbEntity
  8
VELA
 62
   250
100
AcDbLine
 10
2692.247216
 20
3248.358058
 30
0.0
 11
2742.247216
 21
3212.358058
 31
0.0
  0
POINT
  5
152C
100
AcDbEntity
  8
PUNTOS
 62
   252
100
AcDbPoint
 10
2692.247216
 20
3248.358058
 30
0.0
  0
POINT
  5
152D
100
AcDbEntity
  8
PUNTOS
 62
   252
100
AcDbPoint
 10
2742.247216
 20
3212.358058
 30
0.0
  0
LINE
  5
152E
100
AcDbEntity
  8
VELA
 62
   250
100
AcDbLine
 10
2992.247216
 20
3020.358058
 30
0.0
 11
3003.235522
 21
3011.237764
 31
0.0
  0
POINT
  5
152F
100
AcDbEntity
  8
PUNTOS
 62
   252
100
AcDbPoint
 10
2992.247216
 20
3020.358058
 30
0.0
  0
LINE
  5
1531
100
AcDbEntity
  8
COTAS
  6
ACAD_ISO02W100
 62
   250
100
AcDbLine
 10
2432.66687
 20
3429.783535
 30
0.0
 11
3012.66687
 21
3429.783535
 31
0.0
  0
LINE
  5
1546
100
AcDbEntity
  8
COTAS
  6
ACAD_ISO02W100
 62
   252
100
AcDbLine
 10
2432.66687
 20
3429.783535
 30
0.0
 11
2432.66687
 21
2626.783535
 31
0.0
  0
LINE
  5
1547
100
AcDbEntity
  8
VELA
 62
   250
100
AcDbLine
 10
2688.830537
 20
3409.93362
 30
0.0
 11
2747.002189
 21
3357.579134
 31
0.0
  0
ARC
  5
1548
100
AcDbEntity
  8
VELAMARGEN
 62
   250
100
AcDbCircle
 10
70.973554
 20
434.641795
 30
0.0
 40
3969.912619
100
AcDbArc
 50
47.522659
 51
48.744016
  0
LINE
  5
1549
100
AcDbEntity
  8
VELAMARGEN
 62
   250
100
AcDbLine
 10
2696.830537
 20
3289.216156
 30
0.0
 11
2696.830537
 21
3412.070436
 31
0.0
  0
LINE
  5
154A
100
AcDbEntity
  8
VELA
 62
   250
100
AcDbLine
 10
2688.830537
 20
3297.49724
 30
0.0
 11
2688.830537
 21
3419.106743
 31
0.0
  0
LINE
  5
154B
100
AcDbEntity
  8
VELA
 62
   250
100
AcDbLine
 10
2696.830537
 20
3294.640999
 30
0.0
 11
2696.830537
 21
3412.070436
 31
0.0
  0
LINE
  5
154C
100
AcDbEntity
  8
VELAMARGEN
 62
   250
100
AcDbLine
 10
2688.830537
 20
3292.191993
 30
0.0
 11
2688.830537
 21
3419.106743
 31
0.0
  0
POINT
  5
154D
100
AcDbEntity
  8
PUNTOS
 62
   252
100
AcDbPoint
 10
2697.002189
 20
3402.579134
 30
0.0
  0
POINT
  5
154E
100
AcDbEntity
  8
PUNTOS
 62
     1
100
AcDbPoint
 10
2691.002189
 20
3407.579134
 30
0.0
  0
LINE
  5
154F
100
AcDbEntity
  8
VELA
 62
   250
100
AcDbLine
 10
2696.830537
 20
3402.722177
 30
0.0
 11
2697.002189
 21
3402.579134
 31
0.0
  0
ARC
  5
1550
100
AcDbEntity
  8
VELAMARGEN
 62
   250
100
AcDbCircle
 10
-4212.810385
 20
-3992.321863
 30
0.0
 40
10129.254314
100
AcDbArc
 50
45.380727
 51
46.561248
  0
POINT
  5
1551
100
AcDbEntity
  8
PUNTOS
 62
   252
100
AcDbPoint
 10
2747.002189
 20
3357.579134
 30
0.0
  0
LINE
  5
1552
100
AcDbEntity
  8
VELA
 62
   250
100
AcDbLine
 10
2747.002189
 20
3357.579134
 30
0.0
 11
2797.002189
 21
3310.579134
 31
0.0
  0
POINT
  5
1553
100
AcDbEntity
  8
PUNTOS
 62
   252
100
AcDbPoint
 10
2747.002189
 20
3271.579134
 30
0.0
  0
ARC
  5
1554
100
AcDbEntity
  8
VELAMARGEN
 62
   250
100
AcDbCircle
 10
2143.518487
 20
2026.505383
 30
0.0
 40
1378.61986
100
AcDbArc
 50
61.812077
 51
66.402505
  0
ARC
  5
1555
100
AcDbEntity
  8
VELA
 62
   250
100
AcDbCircle
 10
2148.221189
 20
2035.729134
 30
0.0
 40
1373.267603
100
AcDbArc
 50
61.807463
 51
66.445766
  0
LINE
  5
1556
100
AcDbEntity
  8
VELA
 62
   250
100
AcDbLine
 10
2797.002189
 20
3246.079134
 30
0.0
 11
2747.002189
 21
3271.579134
 31
0.0
  0
POINT
  5
1557
100
AcDbEntity
  8
PUNTOS
 62
   252
100
AcDbPoint
 10
2697.002189
 20
3294.579134
 30
0.0
  0
ARC
  5
1558
100
AcDbEntity
  8
VELA
 62
   250
100
AcDbCircle
 10
2206.202189
 20
1933.079134
 30
0.0
 40
1447.26186
100
AcDbArc
 50
70.176539
 51
70.183763
  0
ARC
  5
1559
100
AcDbEntity
  8
VELAMARGEN
 62
   250
100
AcDbCircle
 10
2143.518487
 20
2026.505383
 30
0.0
 40
1378.61986
100
AcDbArc
 50
66.337265
 51
66.402505
  0
ARC
  5
155A
100
AcDbEntity
  8
VELAMARGEN
 62
   250
100
AcDbCircle
 10
2200.662378
 20
1916.78295
 30
0.0
 40
1459.471886
100
AcDbArc
 50
70.185331
 51
70.458913
  0
POINT
  5
155B
100
AcDbEntity
  8
PUNTOS
 62
   252
100
AcDbPoint
 10
2847.002189
 20
3261.579134
 30
0.0
  0
LINE
  5
155C
100
AcDbEntity
  8
VELA
 62
   250
100
AcDbLine
 10
2847.002189
 20
3261.579134
 30
0.0
 11
2897.002189
 21
3212.579134
 31
0.0
  0
LINE
  5
155D
100
AcDbEntity
  8
VELA
 62
   250
100
AcDbLine
 10
2797.002189
 20
3310.579134
 30
0.0
 11
2847.002189
 21
3261.579134
 31
0.0
  0
ARC
  5
155E
100
AcDbEntity
  8
VELA
 62
   250
100
AcDbCircle
 10
2041.729189
 20
1862.929134
 30
0.0
 40
1575.925514
100
AcDbArc
 50
57.131582
 51
61.363127
  0
ARC
  5
155F
100
AcDbEntity
  8
VELAMARGEN
 62
   250
100
AcDbCircle
 10
2041.262105
 20
1862.1738
 30
0.0
 40
1571.814293
100
AcDbArc
 50
57.128833
 51
61.356255
  0
POINT
  5
1560
100
AcDbEntity
  8
PUNTOS
 62
   252
100
AcDbPoint
 10
2797.002189
 20
3246.079134
 30
0.0
  0
LINE
  5
1561
100
AcDbEntity
  8
VELA
 62
   250
100
AcDbLine
 10
2847.002189
 20
3217.579134
 30
0.0
 11
2797.002189
 21
3246.079134
 31
0.0
  0
ARC
  5
1562
100
AcDbEntity
  8
VELA
 62
   250
100
AcDbCircle
 10
2759.007452
 20
2947.815976
 30
0.0
 40
275.772357
100
AcDbArc
 50
47.023165
 51
59.973953
  0
ARC
  5
1563
100
AcDbEntity
  8
VELAMARGEN
 62
   250
100
AcDbCircle
 10
2760.308795
 20
2949.570342
 30
0.0
 40
268.604953
100
AcDbArc
 50
46.934524
 51
60.060088
  0
POINT
  5
1564
100
AcDbEntity
  8
PUNTOS
 62
   252
100
AcDbPoint
 10
2932.002189
 20
3162.579134
 30
0.0
  0
POINT
  5
1565
100
AcDbEntity
  8
PUNTOS
 62
   252
100
AcDbPoint
 10
2947.002189
 20
3163.579134
 30
0.0
  0
POINT
  5
1566
100
AcDbEntity
  8
PUNTOS
 62
   252
100
AcDbPoint
 10
2947.002189
 20
3149.579134
 30
0.0
  0
LINE
  5
1567
100
AcDbEntity
  8
VELA
 62
   250
100
AcDbLine
 10
2955.002189
 20
3155.079134
 30
0.0
 11
2947.002189
 21
3149.579134
 31
0.0
  0
LINE
  5
1568
100
AcDbEntity
  8
VELAMARGEN
 62
   250
100
AcDbLine
 10
2964.225629
 20
3155.39728
 30
0.0
 11
2949.834833
 21
3145.458924
 31
0.0
  0
POINT
  5
1569
100
AcDbEntity
  8
PUNTOS
 62
   252
100
AcDbPoint
 10
2955.002189
 20
3155.079134
 30
0.0
  0
LINE
  5
156A
100
AcDbEntity
  8
VELAMARGEN
 62
   250
100
AcDbLine
 10
2943.721304
 20
3145.806099
 30
0.0
 11
2946.686439
 21
3143.294404
 31
0.0
  0
LINE
  5
156B
100
AcDbEntity
  8
VELAMARGEN
 62
   250
100
AcDbLine
 10
2949.834833
 20
3145.458924
 30
0.0
 11
2946.686439
 21
3143.294404
 31
0.0
  0
LINE
  5
156C
100
AcDbEntity
  8
VELA
 62
   250
100
AcDbLine
 10
2947.002189
 20
3163.579134
 30
0.0
 11
2955.002189
 21
3155.079134
 31
0.0
  0
ARC
  5
156D
100
AcDbEntity
  8
VELAMARGEN
 62
   250
100
AcDbCircle
 10
2226.85837
 20
2478.662833
 30
0.0
 40
1000.83964
100
AcDbArc
 50
42.544818
 51
47.586418
  0
LINE
  5
156E
100
AcDbEntity
  8
VELA
 62
   250
100
AcDbLine
 10
2897.002189
 20
3212.579134
 30
0.0
 11
2947.002189
 21
3163.579134
 31
0.0
  0
POINT
  5
156F
100
AcDbEntity
  8
PUNTOS
 62
   252
100
AcDbPoint
 10
2897.002189
 20
3212.579134
 30
0.0
  0
POINT
  5
1570
100
AcDbEntity
  8
PUNTOS
 62
   252
100
AcDbPoint
 10
2897.002189
 20
3186.579134
 30
0.0
  0
POINT
  5
1571
100
AcDbEntity
  8
PUNTOS
 62
   252
100
AcDbPoint
 10
2847.002189
 20
3217.579134
 30
0.0
  0
LINE
  5
1572
100
AcDbEntity
  8
VELA
 62
   250
100
AcDbLine
 10
2897.002189
 20
3186.579134
 30
0.0
 11
2847.002189
 21
3217.579134
 31
0.0
  0
ARC
  5
1574
100
AcDbEntity
  8
VELAMARGEN
 62
   250
100
AcDbCircle
 10
-645.032164
 20
-1328.105299
 30
0.0
 40
5407.696056
100
AcDbArc
 50
49.960569
 51
50.561405
  0
LINE
  5
1575
100
AcDbEntity
  8
VELA
  6
ACAD_ISO07W100
 62
   250
100
AcDbLine
 10
2871.051644
 20
2658.174117
 30
0.0
 11
2871.051644
 21
2779.78362
 31
0.0
  0
POINT
  5
1576
100
AcDbEntity
  8
PUNTOS
 62
   252
100
AcDbPoint
 10
2879.223296
 20
2763.256011
 30
0.0
  0
LINE
  5
1577
100
AcDbEntity
  8
VELAMARGEN
 62
   250
100
AcDbLine
 10
2879.051644
 20
2649.893033
 30
0.0
 11
2879.051644
 21
2772.747314
 31
0.0
  0
LINE
  5
1578
100
AcDbEntity
  8
VELA
 62
   250
100
AcDbLine
 10
2879.051644
 20
2655.317877
 30
0.0
 11
2879.051644
 21
2772.747314
 31
0.0
  0
LINE
  5
1579
100
AcDbEntity
  8
VELAMARGEN
 62
   250
100
AcDbLine
 10
2871.051644
 20
2652.86887
 30
0.0
 11
2871.051644
 21
2779.78362
 31
0.0
  0
POINT
  5
157A
100
AcDbEntity
  8
PUNTOS
 62
     1
100
AcDbPoint
 10
2873.223296
 20
2768.256011
 30
0.0
  0
POINT
  5
157B
100
AcDbEntity
  8
PUNTOS
 62
   252
100
AcDbPoint
 10
2879.223296
 20
2655.256011
 30
0.0
  0
LINE
  5
157C
100
AcDbEntity
  8
VELA
 62
   250
100
AcDbLine
 10
2829.223296
 20
2672.256011
 30
0.0
 11
2790.211602
 21
2683.95952
 31
0.0
  0
ARC
  5
157D
100
AcDbEntity
  8
VELAMARGEN
 62
   250
100
AcDbCircle
 10
2382.883486
 20
1277.459827
 30
0.0
 40
1459.471886
100
AcDbArc
 50
70.185331
 51
73.793931
  0
ARC
  5
157E
100
AcDbEntity
  8
VELA
 62
   250
100
AcDbCircle
 10
2388.423296
 20
1293.756011
 30
0.0
 40
1447.26186
100
AcDbArc
 50
70.520057
 51
73.881812
  0
POINT
  5
157F
100
AcDbEntity
  8
PUNTOS
 62
   252
100
AcDbPoint
 10
2829.223296
 20
2672.256011
 30
0.0
  0
ARC
  5
1580
100
AcDbEntity
  8
VELAMARGEN
 62
   250
100
AcDbCircle
 10
2325.739594
 20
1387.182261
 30
0.0
 40
1378.61986
100
AcDbArc
 50
66.337265
 51
66.402505
  0
ARC
  5
1581
100
AcDbEntity
  8
VELA
 62
   250
100
AcDbCircle
 10
2388.423296
 20
1293.756011
 30
0.0
 40
1447.26186
100
AcDbArc
 50
70.176539
 51
70.183763
  0
ARC
  5
1582
100
AcDbEntity
  8
VELAMARGEN
 62
   250
100
AcDbCircle
 10
2382.883486
 20
1277.459827
 30
0.0
 40
1459.471886
100
AcDbArc
 50
70.185331
 51
70.458913
  0
POINT
  5
1583
100
AcDbEntity
  8
PUNTOS
 62
   252
100
AcDbPoint
 10
2829.223296
 20
2806.756011
 30
0.0
  0
LINE
  5
1584
100
AcDbEntity
  8
VELA
 62
   250
100
AcDbLine
 10
2790.211602
 20
2839.135717
 30
0.0
 11
2829.223296
 21
2806.756011
 31
0.0
  0
LINE
  5
1585
100
AcDbEntity
  8
VELA
 62
   250
100
AcDbLine
 10
2879.051644
 20
2763.399055
 30
0.0
 11
2879.223296
 21
2763.256011
 31
0.0
  0
ARC
  5
1586
100
AcDbEntity
  8
VELAMARGEN
 62
   250
100
AcDbCircle
 10
253.194662
 20
-204.681327
 30
0.0
 40
3969.912619
100
AcDbArc
 50
48.590251
 51
49.454978
  0
LINE
  5
1587
100
AcDbEntity
  8
VELA
 62
   250
100
AcDbLine
 10
2829.223296
 20
2806.756011
 30
0.0
 11
2879.051644
 21
2763.156207
 31
0.0
  0
LINE
  5
158A
100
AcDbEntity
  8
COTAS
  6
ACAD_ISO02W100
 62
   252
100
AcDbLine
 10
2790.211602
 20
2856.838712
 30
0.0
 11
2790.211602
 21
2656.597792
 31
0.0
  0
LINE
  5
158C
100
AcDbEntity
  8
COTAS
  6
ACAD_ISO02W100
 62
   252
100
AcDbLine
 10
3003.235522
 20
3028.940758
 30
0.0
 11
3003.235522
 21
2828.699838
 31
0.0
  0
POLYLINE
  5
2882
100
AcDbEntity
  8
VARILLAS
 62
     8
100
AcDb2dPolyline
 66
     1
 10
0.0
 20
0.0
 30
0.0
 70
     1
  0
VERTEX
  5
38A9
100
AcDbEntity
  8
VARILLAS
 62
     8
100
AcDbVertex
100
AcDb2dVertex
 10
3242.664666
 20
3997.086661
 30
0.0
  0
VERTEX
  5
38AA
100
AcDbEntity
  8
VARILLAS
 62
     8
100
AcDbVertex
100
AcDb2dVertex
 10
6900.379604
 20
3997.086661
 30
0.0
  0
VERTEX
  5
38AB
100
AcDbEntity
  8
VARILLAS
 62
     8
100
AcDbVertex
100
AcDb2dVertex
 10
6900.379604
 20
2106.948471
 30
0.0
  0
VERTEX
  5
38AC
100
AcDbEntity
  8
VARILLAS
 62
     8
100
AcDbVertex
100
AcDb2dVertex
 10
3242.664666
 20
2106.948471
 30
0.0
  0
SEQEND
  5
38AD
100
AcDbEntity
  8
VARILLAS
 62
     8
  0
LINE
  5
2883
100
AcDbEntity
  8
VARILLAS
100
AcDbLine
 10
5244.935868
 20
3385.605299
 30
0.0
 11
4456.702012
 21
2527.751938
 31
0.0
  0
LINE
  5
2884
100
AcDbEntity
  8
CUADRICULA
 62
   255
100
AcDbLine
 10
4420.013033
 20
2504.949238
 30
0.0
 11
4420.013033
 21
3327.772378
 31
0.0
  0
LINE
  5
2885
100
AcDbEntity
  8
CUADRICULA
 62
   255
100
AcDbLine
 10
4370.013033
 20
2504.949238
 30
0.0
 11
4370.013033
 21
3327.772378
 31
0.0
  0
LINE
  5
2886
100
AcDbEntity
  8
CUADRICULA
 62
   255
100
AcDbLine
 10
4320.013033
 20
2504.949238
 30
0.0
 11
4320.013033
 21
3327.772378
 31
0.0
  0
LINE
  5
2887
100
AcDbEntity
  8
CUADRICULA
 62
   255
100
AcDbLine
 10
4270.013033
 20
2504.949238
 30
0.0
 11
4270.013033
 21
3327.772378
 31
0.0
  0
LINE
  5
2888
100
AcDbEntity
  8
CUADRICULA
 62
   255
100
AcDbLine
 10
4220.013033
 20
2504.949238
 30
0.0
 11
4220.013033
 21
3327.772378
 31
0.0
  0
LINE
  5
2889
100
AcDbEntity
  8
CUADRICULA
 62
   255
100
AcDbLine
 10
4170.013033
 20
2504.949238
 30
0.0
 11
4170.013033
 21
3327.772378
 31
0.0
  0
LINE
  5
288A
100
AcDbEntity
  8
CUADRICULA
 62
   255
100
AcDbLine
 10
4120.013033
 20
2504.949238
 30
0.0
 11
4120.013033
 21
3327.772378
 31
0.0
  0
LINE
  5
288B
100
AcDbEntity
  8
CUADRICULA
 62
   255
100
AcDbLine
 10
4070.013033
 20
2504.949238
 30
0.0
 11
4070.013033
 21
3327.772378
 31
0.0
  0
LINE
  5
288C
100
AcDbEntity
  8
CUADRICULA
 62
   255
100
AcDbLine
 10
4020.013033
 20
2504.949238
 30
0.0
 11
4020.013033
 21
3327.772378
 31
0.0
  0
LINE
  5
288D
100
AcDbEntity
  8
CUADRICULA
 62
   255
100
AcDbLine
 10
3970.013033
 20
2504.949238
 30
0.0
 11
3970.013033
 21
3327.772378
 31
0.0
  0
LINE
  5
288E
100
AcDbEntity
  8
CUADRICULA
 62
   255
100
AcDbLine
 10
3920.013033
 20
2504.949238
 30
0.0
 11
3920.013033
 21
3327.772378
 31
0.0
  0
LINE
  5
288F
100
AcDbEntity
  8
CUADRICULA
 62
   255
100
AcDbLine
 10
3870.013033
 20
2504.949238
 30
0.0
 11
3870.013033
 21
3327.772378
 31
0.0
  0
LINE
  5
2890
100
AcDbEntity
  8
CUADRICULA
 62
   255
100
AcDbLine
 10
3820.013033
 20
2504.949238
 30
0.0
 11
3820.013033
 21
3327.772378
 31
0.0
  0
LINE
  5
2891
100
AcDbEntity
  8
CUADRICULA
 62
   255
100
AcDbLine
 10
3770.013033
 20
2504.949238
 30
0.0
 11
3770.013033
 21
3327.772378
 31
0.0
  0
LINE
  5
2892
100
AcDbEntity
  8
CUADRICULA
 62
   255
100
AcDbLine
 10
3720.013033
 20
2504.949238
 30
0.0
 11
3720.013033
 21
3327.772378
 31
0.0
  0
LINE
  5
2893
100
AcDbEntity
  8
CUADRICULA
 62
   255
100
AcDbLine
 10
3670.013033
 20
2504.949238
 30
0.0
 11
3670.013033
 21
3327.772378
 31
0.0
  0
LINE
  5
2894
100
AcDbEntity
  8
CUADRICULA
 62
   255
100
AcDbLine
 10
3620.013033
 20
2504.949238
 30
0.0
 11
3620.013033
 21
3327.772378
 31
0.0
  0
LINE
  5
2895
100
AcDbEntity
  8
CUADRICULA
 62
   255
100
AcDbLine
 10
3570.013033
 20
2504.949238
 30
0.0
 11
3570.013033
 21
3327.772378
 31
0.0
  0
LINE
  5
2896
100
AcDbEntity
  8
CUADRICULA
 62
   255
100
AcDbLine
 10
3520.013033
 20
2504.949238
 30
0.0
 11
3520.013033
 21
3327.772378
 31
0.0
  0
LINE
  5
2897
100
AcDbEntity
  8
CUADRICULA
 62
   255
100
AcDbLine
 10
3470.013033
 20
2504.949238
 30
0.0
 11
3470.013033
 21
3327.772378
 31
0.0
  0
LINE
  5
2898
100
AcDbEntity
  8
CUADRICULA
 62
   255
100
AcDbLine
 10
3420.013033
 20
2504.949238
 30
0.0
 11
3420.013033
 21
3327.772378
 31
0.0
  0
DIMENSION
  5
2899
100
AcDbEntity
  8
VELACOTAS
 62
     8
100
AcDbDimension
  2
*D21
 10
4328.013033
 20
2452.944222
 30
0.0
 11
3874.013033
 21
2463.569222
 31
0.0
 12
3420.013033
 22
2504.949238
 32
0.0
 70
    32
  3
STANDARD
100
AcDbAlignedDimension
 13
3420.013033
 23
2504.949238
 33
0.0
 14
4328.013033
 24
2547.449238
 34
0.0
100
AcDbRotatedDimension
  0
DIMENSION
  5
289A
100
AcDbEntity
  8
VELACOTAS
 62
     8
100
AcDbDimension
  2
*D20
 10
3420.013033
 20
2824.839232
 30
0.0
 11
3563.763033
 21
2837.130898
 31
0.0
 12
3420.013033
 22
2504.949238
 32
0.0
 70
    32
  3
STANDARD
100
AcDbAlignedDimension
 13
3707.513033
 23
2875.949238
 33
0.0
 14
3420.013033
 24
2875.949238
 34
0.0
100
AcDbRotatedDimension
  0
ARC
  5
289D
100
AcDbEntity
  8
VELAMARGEN
100
AcDbCircle
 10
2022.468622
 20
738.901123
 30
0.0
 40
2892.61712
100
AcDbArc
 50
55.181214
 51
57.566735
  0
ARC
  5
289E
100
AcDbEntity
  8
VELAMARGEN
100
AcDbCircle
 10
3814.303547
 20
2291.344132
 30
0.0
 40
433.060764
100
AcDbArc
 50
109.191402
 51
123.941398
  0
LINE
  5
289F
100
AcDbEntity
  8
VELA
100
AcDbLine
 10
3611.72916
 20
3006.665342
 30
0.0
 11
3704.22916
 21
2873.665342
 31
0.0
  0
LINE
  5
28A0
100
AcDbEntity
  8
VELA
100
AcDbLine
 10
3618.296905
 20
3011.233134
 30
0.0
 11
3710.796905
 21
2878.233134
 31
0.0
  0
LINE
  5
28A1
100
AcDbEntity
  8
VELA
100
AcDbLine
 10
3615.013033
 20
3008.949238
 30
0.0
 11
3707.513033
 21
2875.949238
 31
0.0
  0
ARC
  5
28A2
100
AcDbEntity
  8
VELA
100
AcDbCircle
 10
3814.325533
 20
2291.324238
 30
0.0
 40
438.07732
100
AcDbArc
 50
109.233724
 51
123.896379
  0
LINE
  5
28A3
100
AcDbEntity
  8
VELA
100
AcDbLine
 10
3614.013033
 20
3145.949238
 30
0.0
 11
3670.013033
 21
3107.949238
 31
0.0
  0
LINE
  5
28A4
100
AcDbEntity
  8
CUADRICULA
 62
   255
100
AcDbLine
 10
3420.013033
 20
3304.949238
 30
0.0
 11
4420.013033
 21
3304.949238
 31
0.0
  0
LINE
  5
28A5
100
AcDbEntity
  8
CUADRICULA
 62
   255
100
AcDbLine
 10
3420.013033
 20
3254.949238
 30
0.0
 11
4420.013033
 21
3254.949238
 31
0.0
  0
LINE
  5
28A6
100
AcDbEntity
  8
CUADRICULA
 62
   255
100
AcDbLine
 10
3420.013033
 20
3204.949238
 30
0.0
 11
4420.013033
 21
3204.949238
 31
0.0
  0
LINE
  5
28A7
100
AcDbEntity
  8
CUADRICULA
 62
   255
100
AcDbLine
 10
3420.013033
 20
3154.949238
 30
0.0
 11
4420.013033
 21
3154.949238
 31
0.0
  0
LINE
  5
28A8
100
AcDbEntity
  8
CUADRICULA
 62
   255
100
AcDbLine
 10
3420.013033
 20
3104.949238
 30
0.0
 11
4420.013033
 21
3104.949238
 31
0.0
  0
LINE
  5
28A9
100
AcDbEntity
  8
CUADRICULA
 62
   255
100
AcDbLine
 10
3420.013033
 20
3054.949238
 30
0.0
 11
4420.013033
 21
3054.949238
 31
0.0
  0
LINE
  5
28AA
100
AcDbEntity
  8
CUADRICULA
 62
   255
100
AcDbLine
 10
3420.013033
 20
3004.949238
 30
0.0
 11
4420.013033
 21
3004.949238
 31
0.0
  0
LINE
  5
28AB
100
AcDbEntity
  8
CUADRICULA
 62
   255
100
AcDbLine
 10
3420.013033
 20
2954.949238
 30
0.0
 11
4420.013033
 21
2954.949238
 31
0.0
  0
LINE
  5
28AC
100
AcDbEntity
  8
CUADRICULA
 62
   255
100
AcDbLine
 10
3420.013033
 20
2904.949238
 30
0.0
 11
4420.013033
 21
2904.949238
 31
0.0
  0
LINE
  5
28AD
100
AcDbEntity
  8
CUADRICULA
 62
   255
100
AcDbLine
 10
3420.013033
 20
2854.949238
 30
0.0
 11
4420.013033
 21
2854.949238
 31
0.0
  0
LINE
  5
28AE
100
AcDbEntity
  8
CUADRICULA
 62
   255
100
AcDbLine
 10
3420.013033
 20
2804.949238
 30
0.0
 11
4420.013033
 21
2804.949238
 31
0.0
  0
LINE
  5
28AF
100
AcDbEntity
  8
CUADRICULA
 62
   255
100
AcDbLine
 10
3420.013033
 20
2754.949238
 30
0.0
 11
4420.013033
 21
2754.949238
 31
0.0
  0
LINE
  5
28B0
100
AcDbEntity
  8
CUADRICULA
 62
   255
100
AcDbLine
 10
3420.013033
 20
2704.949238
 30
0.0
 11
4420.013033
 21
2704.949238
 31
0.0
  0
LINE
  5
28B1
100
AcDbEntity
  8
CUADRICULA
 62
   255
100
AcDbLine
 10
3420.013033
 20
2654.949238
 30
0.0
 11
4420.013033
 21
2654.949238
 31
0.0
  0
LINE
  5
28B2
100
AcDbEntity
  8
CUADRICULA
 62
   255
100
AcDbLine
 10
3420.013033
 20
2604.949238
 30
0.0
 11
4420.013033
 21
2604.949238
 31
0.0
  0
LINE
  5
28B3
100
AcDbEntity
  8
CUADRICULA
 62
   255
100
AcDbLine
 10
3420.013033
 20
2554.949238
 30
0.0
 11
4420.013033
 21
2554.949238
 31
0.0
  0
LINE
  5
28B4
100
AcDbEntity
  8
CUADRICULA
 62
   255
100
AcDbLine
 10
3420.013033
 20
2504.949238
 30
0.0
 11
4420.013033
 21
2504.949238
 31
0.0
  0
POINT
  5
28B5
100
AcDbEntity
  8
PUNTOS
100
AcDbPoint
 10
3615.013033
 20
3008.949238
 30
0.0
  0
POINT
  5
28B6
100
AcDbEntity
  8
PUNTOS
 62
     1
100
AcDbPoint
 10
3614.013033
 20
3145.949238
 30
0.0
  0
POINT
  5
28B7
100
AcDbEntity
  8
PUNTOS
100
AcDbPoint
 10
3620.013033
 20
3141.949238
 30
0.0
  0
POINT
  5
28B8
100
AcDbEntity
  8
PUNTOS
100
AcDbPoint
 10
3670.013033
 20
3107.949238
 30
0.0
  0
POINT
  5
28B9
100
AcDbEntity
  8
PUNTOS
100
AcDbPoint
 10
3670.013033
 20
2704.949238
 30
0.0
  0
POINT
  5
28BA
100
AcDbEntity
  8
PUNTOS
100
AcDbPoint
 10
3620.013033
 20
2683.949238
 30
0.0
  0
DIMENSION
  5
28BB
100
AcDbEntity
  8
VELACOTAS
 62
     8
100
AcDbDimension
  2
*D15
 10
3366.89778
 20
3127.949238
 30
0.0
 11
3356.27278
 21
2927.949238
 31
0.0
 12
3420.013033
 22
2504.949238
 32
0.0
 70
    32
  3
STANDARD
100
AcDbAlignedDimension
 13
3420.013033
 23
2727.949238
 33
0.0
 14
3420.013033
 24
3127.949238
 34
0.0
 50
90.0
100
AcDbRotatedDimension
  0
DIMENSION
  5
28BC
100
AcDbEntity
  8
VELACOTAS
 62
     8
100
AcDbDimension
  2
*D17
 10
3548.840266
 20
2504.949238
 30
0.0
 11
3538.215266
 21
2756.949238
 31
0.0
 12
3420.013033
 22
2504.949238
 32
0.0
 70
    32
  3
STANDARD
100
AcDbAlignedDimension
 13
3615.013033
 23
3008.949238
 33
0.0
 14
3615.013033
 24
2504.949238
 34
0.0
 50
90.0
100
AcDbRotatedDimension
  0
LINE
  5
28BD
100
AcDbEntity
  8
VELAMARGEN
100
AcDbLine
 10
3414.013033
 20
2499.949238
 30
0.0
 11
3414.013033
 21
3269.449238
 31
0.0
  0
LINE
  5
28BE
100
AcDbEntity
  8
VELA
100
AcDbLine
 10
3420.013033
 20
3262.449238
 30
0.0
 11
3420.013033
 21
2504.949238
 31
0.0
  0
DIMENSION
  5
28BF
100
AcDbEntity
  8
VELACOTAS
 62
     8
100
AcDbDimension
  2
*D14
 10
3367.314447
 20
2727.949238
 30
0.0
 11
3356.689447
 21
2616.449238
 31
0.0
 12
3420.013033
 22
2504.949238
 32
0.0
 70
    32
  3
STANDARD
100
AcDbAlignedDimension
 13
3420.013033
 23
2504.949238
 33
0.0
 14
3420.013033
 24
2727.949238
 34
0.0
 50
90.0
100
AcDbRotatedDimension
  0
ARC
  5
28C0
100
AcDbEntity
  8
VELAMARGEN
100
AcDbCircle
 10
3830.100166
 20
2265.412249
 30
0.0
 40
463.396086
100
AcDbArc
 50
123.689184
 51
140.2844
  0
ARC
  5
28C1
100
AcDbEntity
  8
VELA
100
AcDbCircle
 10
3845.416279
 20
2250.501912
 30
0.0
 40
489.6986
100
AcDbArc
 50
131.643748
 51
148.694585
  0
POINT
  5
28C2
100
AcDbEntity
  8
PUNTOS
100
AcDbPoint
 10
3470.013033
 20
2564.949238
 30
0.0
  0
ARC
  5
28C3
100
AcDbEntity
  8
VELAMARGEN
100
AcDbCircle
 10
3846.104615
 20
2250.084147
 30
0.0
 40
485.503946
100
AcDbArc
 50
140.027849
 51
149.02587
  0
POINT
  5
28C4
100
AcDbEntity
  8
PUNTOS
100
AcDbPoint
 10
3427.013033
 20
2504.949238
 30
0.0
  0
POINT
  5
28C5
100
AcDbEntity
  8
PUNTOS
100
AcDbPoint
 10
3420.013033
 20
2504.949238
 30
0.0
  0
LINE
  5
28C6
100
AcDbEntity
  8
VELAMARGEN
100
AcDbLine
 10
3429.833648
 20
2499.949238
 30
0.0
 11
3427.013033
 21
2499.949238
 31
0.0
  0
LINE
  5
28C7
100
AcDbEntity
  8
VELAMARGEN
100
AcDbLine
 10
3427.013033
 20
2499.949238
 30
0.0
 11
3414.013033
 21
2499.949238
 31
0.0
  0
LINE
  5
28C8
100
AcDbEntity
  8
VELA
100
AcDbLine
 10
3427.013033
 20
2504.949238
 30
0.0
 11
3420.013033
 21
2504.949238
 31
0.0
  0
POINT
  5
28C9
100
AcDbEntity
  8
PUNTOS
 62
     1
100
AcDbPoint
 10
3420.013033
 20
2727.949238
 30
0.0
  0
POINT
  5
28CA
100
AcDbEntity
  8
PUNTOS
100
AcDbPoint
 10
3570.013033
 20
2654.949238
 30
0.0
  0
ARC
  5
28CB
100
AcDbEntity
  8
VELA
100
AcDbCircle
 10
3830.357263
 20
2265.122315
 30
0.0
 40
468.768758
100
AcDbArc
 50
123.73681
 51
140.237615
  0
POINT
  5
28CC
100
AcDbEntity
  8
PUNTOS
100
AcDbPoint
 10
3520.013033
 20
2616.449238
 30
0.0
  0
DIMENSION
  5
28CD
100
AcDbEntity
  8
VELACOTAS
 62
     8
100
AcDbDimension
  2
*D19
 10
3420.013033
 20
3068.895328
 30
0.0
 11
3517.513033
 21
3079.520328
 31
0.0
 12
3420.013033
 22
2504.949238
 32
0.0
 70
    32
  3
STANDARD
100
AcDbAlignedDimension
 13
3615.013033
 23
3008.949238
 33
0.0
 14
3420.013033
 24
3008.949238
 34
0.0
100
AcDbRotatedDimension
  0
LINE
  5
28CE
100
AcDbEntity
  8
VELA
100
AcDbLine
 10
3618.296905
 20
3011.233134
 30
0.0
 11
3611.72916
 21
3006.665342
 31
0.0
  0
ARC
  5
28CF
100
AcDbEntity
  8
VELAMARGEN
100
AcDbCircle
 10
2472.409546
 20
1840.330056
 30
0.0
 40
1723.713154
100
AcDbArc
 50
54.486655
 51
56.00572
  0
LINE
  5
28D0
100
AcDbEntity
  8
VELA
100
AcDbLine
 10
3434.013033
 20
3262.449238
 30
0.0
 11
3445.013033
 21
3254.949238
 31
0.0
  0
POINT
  5
28D1
100
AcDbEntity
  8
PUNTOS
 62
     1
100
AcDbPoint
 10
3420.013033
 20
3127.949238
 30
0.0
  0
POINT
  5
28D2
100
AcDbEntity
  8
PUNTOS
100
AcDbPoint
 10
3434.013033
 20
3262.449238
 30
0.0
  0
POINT
  5
28D3
100
AcDbEntity
  8
PUNTOS
100
AcDbPoint
 10
3445.013033
 20
3254.949238
 30
0.0
  0
POINT
  5
28D4
100
AcDbEntity
  8
PUNTOS
100
AcDbPoint
 10
3470.013033
 20
3237.449238
 30
0.0
  0
DIMENSION
  5
28D5
100
AcDbEntity
  8
VELACOTAS
 62
     8
100
AcDbDimension
  2
*D16
 10
3366.481114
 20
3262.449238
 30
0.0
 11
3354.189447
 21
3195.199238
 31
0.0
 12
3420.013033
 22
2504.949238
 32
0.0
 70
    32
  3
STANDARD
100
AcDbAlignedDimension
 13
3420.013033
 23
3127.949238
 33
0.0
 14
3420.013033
 24
3262.449238
 34
0.0
 50
90.0
100
AcDbRotatedDimension
  0
LINE
  5
28D6
100
AcDbEntity
  8
VELA
100
AcDbLine
 10
3436.155051
 20
3269.449238
 30
0.0
 11
3414.013033
 21
3269.449238
 31
0.0
  0
LINE
  5
28D7
100
AcDbEntity
  8
VELA
100
AcDbLine
 10
3434.013033
 20
3262.449238
 30
0.0
 11
3420.013033
 21
3262.449238
 31
0.0
  0
ARC
  5
28D8
100
AcDbEntity
  8
VELAMARGEN
100
AcDbCircle
 10
1319.58233
 20
-286.809569
 30
0.0
 40
4135.5289
100
AcDbArc
 50
56.969015
 51
58.608619
  0
ARC
  5
28D9
100
AcDbEntity
  8
VELA
100
AcDbCircle
 10
1320.053033
 20
-286.050762
 30
0.0
 40
4127.636158
100
AcDbArc
 50
56.968742
 51
58.609403
  0
POINT
  5
28DA
100
AcDbEntity
  8
PUNTOS
100
AcDbPoint
 10
3520.013033
 20
3206.449238
 30
0.0
  0
POINT
  5
28DB
100
AcDbEntity
  8
PUNTOS
100
AcDbPoint
 10
3570.013033
 20
3174.449238
 30
0.0
  0
LINE
  5
28DC
100
AcDbEntity
  8
VELA
100
AcDbLine
 10
3570.013033
 20
3174.449238
 30
0.0
 11
3614.013033
 21
3145.949238
 31
0.0
  0
LINE
  5
28DD
100
AcDbEntity
  8
VELA
100
AcDbLine
 10
3445.013033
 20
3254.949238
 30
0.0
 11
3470.013033
 21
3237.449238
 31
0.0
  0
DIMENSION
  5
28DE
100
AcDbEntity
  8
VELACOTAS
 62
     8
100
AcDbDimension
  2
*D18
 10
3753.638628
 20
2504.949238
 30
0.0
 11
3743.013628
 21
2690.449238
 31
0.0
 12
3420.013033
 22
2504.949238
 32
0.0
 70
    32
  3
STANDARD
100
AcDbAlignedDimension
 13
3707.513033
 23
2875.949238
 33
0.0
 14
3707.513033
 24
2504.949238
 34
0.0
 50
90.0
100
AcDbRotatedDimension
  0
ARC
  5
28E0
100
AcDbEntity
  8
VELAMARGEN
100
AcDbCircle
 10
1443.984398
 20
-172.9881
 30
0.0
 40
3969.912619
100
AcDbArc
 50
47.522659
 51
49.454978
  0
LINE
  5
28E1
100
AcDbEntity
  8
VELA
100
AcDbLine
 10
4020.013033
 20
2838.449238
 30
0.0
 11
4064.013033
 21
2799.949238
 31
0.0
  0
POINT
  5
28E2
100
AcDbEntity
  8
PUNTOS
100
AcDbPoint
 10
4020.013033
 20
2838.449238
 30
0.0
  0
POINT
  5
28E3
100
AcDbEntity
  8
PUNTOS
 62
     1
100
AcDbPoint
 10
4064.013033
 20
2799.949238
 30
0.0
  0
POINT
  5
28E4
100
AcDbEntity
  8
PUNTOS
100
AcDbPoint
 10
4070.013033
 20
2794.949238
 30
0.0
  0
ARC
  5
28E5
100
AcDbEntity
  8
VELAMARGEN
100
AcDbCircle
 10
3516.529331
 20
1418.875488
 30
0.0
 40
1378.61986
100
AcDbArc
 50
61.812077
 51
66.402505
  0
ARC
  5
28E6
100
AcDbEntity
  8
VELA
100
AcDbCircle
 10
3521.232033
 20
1428.099238
 30
0.0
 40
1373.267603
100
AcDbArc
 50
61.807463
 51
66.445766
  0
LINE
  5
28E7
100
AcDbEntity
  8
VELA
100
AcDbLine
 10
4070.013033
 20
2794.949238
 30
0.0
 11
4120.013033
 21
2749.949238
 31
0.0
  0
POINT
  5
28E8
100
AcDbEntity
  8
PUNTOS
100
AcDbPoint
 10
4120.013033
 20
2749.949238
 30
0.0
  0
POINT
  5
28E9
100
AcDbEntity
  8
PUNTOS
100
AcDbPoint
 10
4120.013033
 20
2663.949238
 30
0.0
  0
POINT
  5
28EA
100
AcDbEntity
  8
PUNTOS
100
AcDbPoint
 10
4070.013033
 20
2686.949238
 30
0.0
  0
ARC
  5
28EB
100
AcDbEntity
  8
VELAMARGEN
100
AcDbCircle
 10
3845.013478
 20
1891.534256
 30
0.0
 40
837.788032
100
AcDbArc
 50
88.290103
 51
95.068989
  0
ARC
  5
28EC
100
AcDbEntity
  8
VELA
100
AcDbCircle
 10
3845.013033
 20
1899.115905
 30
0.0
 40
835.207576
100
AcDbArc
 50
88.284728
 51
95.151988
  0
LINE
  5
28ED
100
AcDbEntity
  8
VELA
100
AcDbLine
 10
3870.013033
 20
2733.949238
 30
0.0
 11
3820.013033
 21
2733.949238
 31
0.0
  0
POINT
  5
28EE
100
AcDbEntity
  8
PUNTOS
100
AcDbPoint
 10
3870.013033
 20
2733.949238
 30
0.0
  0
POINT
  5
28EF
100
AcDbEntity
  8
PUNTOS
100
AcDbPoint
 10
3820.013033
 20
2733.949238
 30
0.0
  0
POINT
  5
28F0
100
AcDbEntity
  8
PUNTOS
100
AcDbPoint
 10
3770.013033
 20
2730.949238
 30
0.0
  0
POINT
  5
28F1
100
AcDbEntity
  8
PUNTOS
100
AcDbPoint
 10
3720.013033
 20
2720.949238
 30
0.0
  0
ARC
  5
28F2
100
AcDbEntity
  8
VELAMARGEN
100
AcDbCircle
 10
3835.178331
 20
2275.099762
 30
0.0
 40
455.491309
100
AcDbArc
 50
98.101077
 51
110.999888
  0
ARC
  5
28F3
100
AcDbEntity
  8
VELA
100
AcDbCircle
 10
3835.279699
 20
2274.615905
 30
0.0
 40
460.977059
100
AcDbArc
 50
98.139477
 51
111.008955
  0
LINE
  5
28F4
100
AcDbEntity
  8
VELA
100
AcDbLine
 10
3770.013033
 20
2730.949238
 30
0.0
 11
3720.013033
 21
2720.949238
 31
0.0
  0
POINT
  5
28F5
100
AcDbEntity
  8
PUNTOS
 62
     1
100
AcDbPoint
 10
3806.013033
 20
2736.449238
 30
0.0
  0
LINE
  5
28F6
100
AcDbEntity
  8
VELA
100
AcDbLine
 10
3720.013033
 20
2720.949238
 30
0.0
 11
3670.013033
 21
2704.949238
 31
0.0
  0
LINE
  5
28F7
100
AcDbEntity
  8
VELA
100
AcDbLine
 10
3820.013033
 20
2733.949238
 30
0.0
 11
3770.013033
 21
2730.949238
 31
0.0
  0
ARC
  5
28F8
100
AcDbEntity
  8
VELAMARGEN
100
AcDbCircle
 10
3573.673222
 20
1309.153054
 30
0.0
 40
1459.471886
100
AcDbArc
 50
70.185331
 51
74.278815
  0
LINE
  5
28F9
100
AcDbEntity
  8
VELA
100
AcDbLine
 10
4069.841381
 20
2681.58626
 30
0.0
 11
4069.841381
 21
2804.44054
 31
0.0
  0
LINE
  5
28FA
100
AcDbEntity
  8
VELA
100
AcDbLine
 10
4061.841381
 20
2684.562097
 30
0.0
 11
4061.841381
 21
2811.476847
 31
0.0
  0
ARC
  5
28FB
100
AcDbEntity
  8
VELA
100
AcDbCircle
 10
3579.213033
 20
1325.449238
 30
0.0
 40
1447.26186
100
AcDbArc
 50
70.176539
 51
74.334117
  0
POINT
  5
28FC
100
AcDbEntity
  8
PUNTOS
100
AcDbPoint
 10
4020.013033
 20
2703.949238
 30
0.0
  0
POINT
  5
28FD
100
AcDbEntity
  8
PUNTOS
100
AcDbPoint
 10
3970.013033
 20
2718.949238
 30
0.0
  0
POINT
  5
28FE
100
AcDbEntity
  8
PUNTOS
100
AcDbPoint
 10
3920.013033
 20
2727.949238
 30
0.0
  0
LINE
  5
28FF
100
AcDbEntity
  8
VELA
100
AcDbLine
 10
4020.013033
 20
2703.949238
 30
0.0
 11
3970.013033
 21
2718.949238
 31
0.0
  0
ARC
  5
2900
100
AcDbEntity
  8
VELAMARGEN
100
AcDbCircle
 10
3791.344475
 20
1869.728953
 30
0.0
 40
862.81406
100
AcDbArc
 50
78.109087
 51
84.768752
  0
ARC
  5
2901
100
AcDbEntity
  8
VELA
100
AcDbCircle
 10
3792.313033
 20
1875.115905
 30
0.0
 40
862.340991
100
AcDbArc
 50
78.108034
 51
84.830435
  0
LINE
  5
2902
100
AcDbEntity
  8
VELA
100
AcDbLine
 10
3920.013033
 20
2727.949238
 30
0.0
 11
3870.013033
 21
2733.949238
 31
0.0
  0
LINE
  5
2903
100
AcDbEntity
  8
VELA
100
AcDbLine
 10
3970.013033
 20
2718.949238
 30
0.0
 11
3920.013033
 21
2727.949238
 31
0.0
  0
LINE
  5
2904
100
AcDbEntity
  8
VELA
100
AcDbLine
 10
4064.013033
 20
2799.949238
 30
0.0
 11
4070.013033
 21
2794.949238
 31
0.0
  0
ARC
  5
2905
100
AcDbEntity
  8
VELAMARGEN
100
AcDbCircle
 10
3599.869214
 20
1871.032938
 30
0.0
 40
1000.83964
100
AcDbArc
 50
42.544818
 51
47.586418
  0
ARC
  5
2906
100
AcDbEntity
  8
VELAMARGEN
100
AcDbCircle
 10
4133.319639
 20
2341.940446
 30
0.0
 40
268.604953
100
AcDbArc
 50
46.934524
 51
60.060088
  0
ARC
  5
2907
100
AcDbEntity
  8
VELA
100
AcDbCircle
 10
4132.018296
 20
2340.18608
 30
0.0
 40
275.772357
100
AcDbArc
 50
47.023165
 51
59.973953
  0
LINE
  5
2908
100
AcDbEntity
  8
VELA
100
AcDbLine
 10
4270.013033
 20
2604.949238
 30
0.0
 11
4320.013033
 21
2555.949238
 31
0.0
  0
POINT
  5
2909
100
AcDbEntity
  8
PUNTOS
100
AcDbPoint
 10
4270.013033
 20
2604.949238
 30
0.0
  0
POINT
  5
290A
100
AcDbEntity
  8
PUNTOS
100
AcDbPoint
 10
4320.013033
 20
2555.949238
 30
0.0
  0
POINT
  5
290B
100
AcDbEntity
  8
PUNTOS
100
AcDbPoint
 10
4328.013033
 20
2547.449238
 30
0.0
  0
POINT
  5
290C
100
AcDbEntity
  8
PUNTOS
100
AcDbPoint
 10
4320.013033
 20
2541.949238
 30
0.0
  0
POINT
  5
290D
100
AcDbEntity
  8
PUNTOS
100
AcDbPoint
 10
4305.013033
 20
2554.949238
 30
0.0
  0
POINT
  5
290E
100
AcDbEntity
  8
PUNTOS
100
AcDbPoint
 10
4270.013033
 20
2578.949238
 30
0.0
  0
LINE
  5
290F
100
AcDbEntity
  8
VELAMARGEN
100
AcDbLine
 10
4316.732148
 20
2538.176203
 30
0.0
 11
4319.697283
 21
2535.664508
 31
0.0
  0
LINE
  5
2910
100
AcDbEntity
  8
VELAMARGEN
100
AcDbLine
 10
4322.845677
 20
2537.829029
 30
0.0
 11
4319.697283
 21
2535.664508
 31
0.0
  0
LINE
  5
2911
100
AcDbEntity
  8
VELAMARGEN
100
AcDbLine
 10
4337.236473
 20
2547.767385
 30
0.0
 11
4322.845677
 21
2537.829029
 31
0.0
  0
LINE
  5
2912
100
AcDbEntity
  8
VELA
100
AcDbLine
 10
4328.013033
 20
2547.449238
 30
0.0
 11
4320.013033
 21
2541.949238
 31
0.0
  0
LINE
  5
2913
100
AcDbEntity
  8
VELA
100
AcDbLine
 10
4320.013033
 20
2555.949238
 30
0.0
 11
4328.013033
 21
2547.449238
 31
0.0
  0
ARC
  5
2914
100
AcDbEntity
  8
VELAMARGEN
100
AcDbCircle
 10
-2839.799541
 20
-4599.951759
 30
0.0
 40
10129.254314
100
AcDbArc
 50
45.380727
 51
46.561248
  0
LINE
  5
2915
100
AcDbEntity
  8
VELA
100
AcDbLine
 10
4170.013033
 20
2702.949238
 30
0.0
 11
4220.013033
 21
2653.949238
 31
0.0
  0
POINT
  5
2916
100
AcDbEntity
  8
PUNTOS
100
AcDbPoint
 10
4220.013033
 20
2653.949238
 30
0.0
  0
POINT
  5
2917
100
AcDbEntity
  8
PUNTOS
100
AcDbPoint
 10
4170.013033
 20
2702.949238
 30
0.0
  0
ARC
  5
2918
100
AcDbEntity
  8
VELAMARGEN
100
AcDbCircle
 10
3414.272949
 20
1254.543905
 30
0.0
 40
1571.814293
100
AcDbArc
 50
57.128833
 51
61.356255
  0
ARC
  5
2919
100
AcDbEntity
  8
VELA
100
AcDbCircle
 10
3414.740033
 20
1255.299238
 30
0.0
 40
1575.925514
100
AcDbArc
 50
57.131582
 51
61.363127
  0
LINE
  5
291A
100
AcDbEntity
  8
VELA
100
AcDbLine
 10
4220.013033
 20
2609.949238
 30
0.0
 11
4170.013033
 21
2638.449238
 31
0.0
  0
POINT
  5
291B
100
AcDbEntity
  8
PUNTOS
100
AcDbPoint
 10
4220.013033
 20
2609.949238
 30
0.0
  0
POINT
  5
291C
100
AcDbEntity
  8
PUNTOS
100
AcDbPoint
 10
4170.013033
 20
2638.449238
 30
0.0
  0
LINE
  5
291D
100
AcDbEntity
  8
VELA
100
AcDbLine
 10
4170.013033
 20
2638.449238
 30
0.0
 11
4120.013033
 21
2663.949238
 31
0.0
  0
LINE
  5
291E
100
AcDbEntity
  8
VELA
100
AcDbLine
 10
4270.013033
 20
2578.949238
 30
0.0
 11
4220.013033
 21
2609.949238
 31
0.0
  0
LINE
  5
291F
100
AcDbEntity
  8
VELA
100
AcDbLine
 10
4220.013033
 20
2653.949238
 30
0.0
 11
4270.013033
 21
2604.949238
 31
0.0
  0
LINE
  5
2920
100
AcDbEntity
  8
VELA
100
AcDbLine
 10
4120.013033
 20
2749.949238
 30
0.0
 11
4170.013033
 21
2702.949238
 31
0.0
  0
ARC
  5
2921
100
AcDbEntity
  8
VELAMARGEN
100
AcDbCircle
 10
-1806.40597
 20
-4550.910379
 30
0.0
 40
9422.375459
100
AcDbArc
 50
53.681523
 51
54.433437
  0
LINE
  5
2922
100
AcDbEntity
  8
VELA
100
AcDbLine
 10
3720.013033
 20
3071.949238
 30
0.0
 11
3770.013033
 21
3035.449238
 31
0.0
  0
POINT
  5
2923
100
AcDbEntity
  8
PUNTOS
100
AcDbPoint
 10
3720.013033
 20
3071.949238
 30
0.0
  0
POINT
  5
2924
100
AcDbEntity
  8
PUNTOS
100
AcDbPoint
 10
3770.013033
 20
3035.449238
 30
0.0
  0
LINE
  5
2925
100
AcDbEntity
  8
VELAMARGEN
100
AcDbLine
 10
3874.352368
 20
2965.441976
 30
0.0
 11
3824.248724
 21
3003.522291
 31
0.0
  0
LINE
  5
2926
100
AcDbEntity
  8
VELA
100
AcDbLine
 10
3820.013033
 20
2997.949238
 30
0.0
 11
3870.013033
 21
2959.949238
 31
0.0
  0
POINT
  5
2927
100
AcDbEntity
  8
PUNTOS
100
AcDbPoint
 10
3820.013033
 20
2997.949238
 30
0.0
  0
POINT
  5
2928
100
AcDbEntity
  8
PUNTOS
100
AcDbPoint
 10
3870.013033
 20
2959.949238
 30
0.0
  0
LINE
  5
2929
100
AcDbEntity
  8
VELA
100
AcDbLine
 10
3710.796905
 20
2878.233134
 30
0.0
 11
3704.22916
 21
2873.665342
 31
0.0
  0
POINT
  5
292A
100
AcDbEntity
  8
PUNTOS
100
AcDbPoint
 10
3707.513033
 20
2875.949238
 30
0.0
  0
LINE
  5
292B
100
AcDbEntity
  8
VELAMARGEN
100
AcDbLine
 10
3824.248724
 20
3003.522291
 30
0.0
 11
3774.213045
 21
3041.049229
 31
0.0
  0
LINE
  5
292C
100
AcDbEntity
  8
VELA
100
AcDbLine
 10
3770.013033
 20
3035.449238
 30
0.0
 11
3820.013033
 21
2997.949238
 31
0.0
  0
LINE
  5
292D
100
AcDbEntity
  8
VELAMARGEN
100
AcDbLine
 10
3924.419027
 20
2925.888651
 30
0.0
 11
3874.352368
 21
2965.441976
 31
0.0
  0
LINE
  5
292E
100
AcDbEntity
  8
VELA
100
AcDbLine
 10
3870.013033
 20
2959.949238
 30
0.0
 11
3920.013033
 21
2920.449238
 31
0.0
  0
POINT
  5
292F
100
AcDbEntity
  8
PUNTOS
100
AcDbPoint
 10
3920.013033
 20
2920.449238
 30
0.0
  0
ARC
  5
2930
100
AcDbEntity
  8
VELAMARGEN
100
AcDbCircle
 10
545.757572
 20
-1296.412073
 30
0.0
 40
5407.696056
100
AcDbArc
 50
49.960569
 51
51.3334
  0
LINE
  5
2931
100
AcDbEntity
  8
VELA
100
AcDbLine
 10
3970.013033
 20
2879.949238
 30
0.0
 11
4020.013033
 21
2838.449238
 31
0.0
  0
POINT
  5
2932
100
AcDbEntity
  8
PUNTOS
100
AcDbPoint
 10
3970.013033
 20
2879.949238
 30
0.0
  0
LINE
  5
2933
100
AcDbEntity
  8
VELA
100
AcDbLine
 10
3920.013033
 20
2920.449238
 30
0.0
 11
3970.013033
 21
2879.949238
 31
0.0
  0
LINE
  5
2934
100
AcDbEntity
  8
VELA
100
AcDbLine
 10
3670.013033
 20
3107.949238
 30
0.0
 11
3720.013033
 21
3071.949238
 31
0.0
  0
TEXT
  5
2935
100
AcDbEntity
  8
VARILLAS
 62
     8
100
AcDbText
 10
3466.78936
 20
3584.321611
 30
0.0
 40
100.0
  1
varilla de 3
100
AcDbText
  0
DIMENSION
  5
293E
100
AcDbEntity
  8
VARILLAS
 62
     8
100
AcDbDimension
  2
*D12
 10
5084.080951
 20
3490.366516
 30
0.0
 11
5144.080951
 21
3500.991516
 31
0.0
 12
3420.013033
 22
2504.949238
 32
0.0
 70
    32
  3
STANDARD
100
AcDbAlignedDimension
 13
5204.080951
 23
3182.998024
 33
0.0
 14
5084.080951
 24
3168.989322
 34
0.0
100
AcDbRotatedDimension
  0
DIMENSION
  5
293F
100
AcDbEntity
  8
VARILLAS
 62
     8
100
AcDbDimension
  2
*D8
 10
5434.080951
 20
3568.549802
 30
0.0
 11
5259.080951
 21
3579.174802
 31
0.0
 12
3420.013033
 22
2504.949238
 32
0.0
 70
    33
  3
STANDARD
100
AcDbAlignedDimension
 13
5084.080951
 23
3168.989322
 33
0.0
 14
5434.080951
 24
3168.989322
 34
0.0
  0
DIMENSION
  5
2940
100
AcDbEntity
  8
VARILLAS
 62
     8
100
AcDbDimension
  2
*D7
 10
5370.666041
 20
3475.137515
 30
0.0
 11
5772.606739
 21
3053.399663
 31
0.0
 12
3420.013033
 22
2504.949238
 32
0.0
 70
    33
  3
STANDARD
100
AcDbAlignedDimension
 13
6061.45989
 23
2527.751938
 33
0.0
 14
5273.226033
 24
3385.605299
 34
0.0
  0
DIMENSION
  5
2941
100
AcDbEntity
  8
BRIDAS
 62
     8
100
AcDbDimension
  2
*D5
 10
6291.553063
 20
3546.636315
 30
0.0
 11
6497.354055
 21
3468.158023
 31
0.0
 12
3420.013033
 22
2504.949238
 32
0.0
 70
    33
  3
STANDARD
100
AcDbAlignedDimension
 13
6667.260434
 23
3307.669977
 33
0.0
 14
6264.178908
 24
3484.093566
 34
0.0
  0
DIMENSION
  5
2942
100
AcDbEntity
  8
BRIDAS
 62
     8
100
AcDbDimension
  2
*D4
 10
5782.960374
 20
3215.988204
 30
0.0
 11
6034.798252
 21
3319.306033
 31
0.0
 12
3420.013033
 22
2504.949238
 32
0.0
 70
    33
  3
STANDARD
100
AcDbAlignedDimension
 13
6264.178908
 23
3484.093566
 33
0.0
 14
5753.211121
 24
3297.417588
 34
0.0
  0
LINE
  5
2943
100
AcDbEntity
  8
BRIDAS
100
AcDbLine
 10
6264.178908
 20
3484.093566
 30
0.0
 11
6667.260434
 21
3307.669977
 31
0.0
  0
LINE
  5
2944
100
AcDbEntity
  8
BRIDAS
100
AcDbLine
 10
6264.178908
 20
3484.093566
 30
0.0
 11
5753.211121
 21
3297.417588
 31
0.0
  0
LINE
  5
2945
100
AcDbEntity
  8
VARILLAS
100
AcDbLine
 10
5273.226033
 20
3385.605299
 30
0.0
 11
6061.45989
 21
2527.751938
 31
0.0
  0
LINE
  5
2946
100
AcDbEntity
  8
VARILLAS
100
AcDbLine
 10
5259.080951
 20
3386.669538
 30
0.0
 11
5259.080951
 21
2601.669538
 31
0.0
  0
DIMENSION
  5
2947
100
AcDbEntity
  8
VARILLAS
 62
     8
100
AcDbDimension
  2
*D13
 10
5259.080951
 20
2306.617868
 30
0.0
 11
5551.580951
 21
2317.242868
 31
0.0
 12
3420.013033
 22
2504.949238
 32
0.0
 70
    32
  3
STANDARD
100
AcDbAlignedDimension
 13
5844.080951
 23
2680.541532
 33
0.0
 14
5259.080951
 24
2601.669538
 34
0.0
100
AcDbRotatedDimension
  0
DIMENSION
  5
2948
100
AcDbEntity
  8
VARILLAS
 62
     8
100
AcDbDimension
  2
*D9
 10
5844.080951
 20
2247.61708
 30
0.0
 11
5259.080951
 21
2258.24208
 31
0.0
 12
3420.013033
 22
2504.949238
 32
0.0
 70
    33
  3
STANDARD
100
AcDbAlignedDimension
 13
4674.080951
 23
2680.541532
 33
0.0
 14
5844.080951
 24
2680.541532
 34
0.0
  0
LINE
  5
2949
100
AcDbEntity
  8
VARILLAS
100
AcDbLine
 10
4674.080951
 20
2680.541532
 30
0.0
 11
5844.080951
 21
2680.541532
 31
0.0
  0
LINE
  5
294A
100
AcDbEntity
  8
VARILLAS
100
AcDbLine
 10
5084.080951
 20
3168.989322
 30
0.0
 11
5434.080951
 21
3168.989322
 31
0.0
  0
DIMENSION
  5
294B
100
AcDbEntity
  8
VARILLAS
 62
     8
100
AcDbDimension
  2
*D11
 10
4740.121401
 20
2778.262827
 30
0.0
 11
4876.900086
 21
2999.632387
 31
0.0
 12
3420.013033
 22
2504.949238
 32
0.0
 70
    33
  3
STANDARD
100
AcDbAlignedDimension
 13
5147.154675
 23
3130.798385
 33
0.0
 14
4855.990839
 24
2699.957788
 34
0.0
  0
LINE
  5
294C
100
AcDbEntity
  8
VARILLAS
100
AcDbLine
 10
5147.154675
 20
3130.798385
 30
0.0
 11
4855.990839
 21
2699.957788
 31
0.0
  0
DIMENSION
  5
294D
100
AcDbEntity
  8
VARILLAS
 62
     8
100
AcDbDimension
  2
*D10
 10
4974.738305
 20
2461.067812
 30
0.0
 11
4964.113305
 21
2549.567812
 31
0.0
 12
-4981.507334
 22
2504.949238
 32
0.0
 70
    33
  3
STANDARD
100
AcDbAlignedDimension
 13
4845.930296
 23
2638.067812
 33
0.0
 14
4845.930296
 24
2461.067812
 34
0.0
  0
LINE
  5
294E
100
AcDbEntity
  8
VARILLAS
100
AcDbLine
 10
4845.930296
 20
2638.067812
 30
0.0
 11
4845.930296
 21
2461.067812
 31
0.0
  0
LINE
  5
294F
100
AcDbEntity
  8
VARILLAS
100
AcDbLine
 10
5204.080951
 20
3153.86585
 30
0.0
 11
5204.080951
 21
3182.998024
 31
0.0
  0
LINE
  5
2950
100
AcDbEntity
  8
VARILLAS
100
AcDbLine
 10
5314.080951
 20
3153.86585
 30
0.0
 11
5314.080951
 21
3182.998024
 31
0.0
  0
LINE
  5
2951
100
AcDbEntity
  8
VARILLAS
100
AcDbLine
 10
5371.007226
 20
3130.798385
 30
0.0
 11
5662.171063
 21
2699.957788
 31
0.0
  0
LINE
  5
2952
100
AcDbEntity
  8
VARILLAS
100
AcDbLine
 10
5672.231605
 20
2638.067812
 30
0.0
 11
5672.231605
 21
2461.067812
 31
0.0
  0
DIMENSION
  5
295B
100
AcDbEntity
  8
VELACOTAS
100
AcDbDimension
  2
*D22
 10
6363.322676
 20
2924.820773
 30
0.0
 11
6320.822676
 21
2935.445773
 31
0.0
 12
3420.013033
 22
2504.949238
 32
0.0
 70
    32
  3
STANDARD
100
AcDbAlignedDimension
 13
6278.322676
 23
2950.57552
 33
0.0
 14
6363.322676
 24
2950.57552
 34
0.0
100
AcDbRotatedDimension
  0
DIMENSION
  5
295C
100
AcDbEntity
  8
VELACOTAS
100
AcDbDimension
  2
*D23
 10
6338.322676
 20
2975.721161
 30
0.0
 11
6320.822676
 21
2986.346161
 31
0.0
 12
3420.013033
 22
2504.949238
 32
0.0
 70
    32
  3
STANDARD
100
AcDbAlignedDimension
 13
6303.322676
 23
2966.57552
 33
0.0
 14
6338.322676
 24
2966.57552
 34
0.0
100
AcDbRotatedDimension
  0
LINE
  5
295D
100
AcDbEntity
  8
VELA
  6
ACAD_ISO07W100
100
AcDbLine
 10
6289.822676
 20
2950.57552
 30
0.0
 11
6314.822676
 21
2966.57552
 31
0.0
  0
LINE
  5
295E
100
AcDbEntity
  8
VELA
100
AcDbLine
 10
6278.322676
 20
2950.57552
 30
0.0
 11
6363.322676
 21
2950.57552
 31
0.0
  0
LINE
  5
295F
100
AcDbEntity
  8
VELA
100
AcDbLine
 10
6303.322676
 20
2966.57552
 30
0.0
 11
6338.322676
 21
2966.57552
 31
0.0
  0
LINE
  5
2960
100
AcDbEntity
  8
VELA
  6
ACAD_ISO07W100
100
AcDbLine
 10
6280.322676
 20
2950.57552
 30
0.0
 11
6305.322676
 21
2966.57552
 31
0.0
  0
LINE
  5
2961
100
AcDbEntity
  8
VELA
100
AcDbLine
 10
6278.322676
 20
2950.57552
 30
0.0
 11
6303.322676
 21
2966.57552
 31
0.0
  0
DIMENSION
  5
2962
100
AcDbEntity
  8
VELACOTAS
100
AcDbDimension
  2
*D24
 10
6383.567672
 20
2966.57552
 30
0.0
 11
6372.942672
 21
2983.033853
 31
0.0
 12
3420.013033
 22
2504.949238
 32
0.0
 70
    32
  3
STANDARD
100
AcDbAlignedDimension
 13
6363.322676
 23
2950.57552
 33
0.0
 14
6338.322676
 24
2966.57552
 34
0.0
 50
90.0
100
AcDbRotatedDimension
  0
LINE
  5
2963
100
AcDbEntity
  8
VELA
  6
ACAD_ISO07W100
100
AcDbLine
 10
6326.822676
 20
2966.57552
 30
0.0
 11
6351.822676
 21
2950.57552
 31
0.0
  0
LINE
  5
2964
100
AcDbEntity
  8
VELA
  6
ACAD_ISO07W100
100
AcDbLine
 10
6336.322676
 20
2966.57552
 30
0.0
 11
6361.322676
 21
2950.57552
 31
0.0
  0
LINE
  5
2965
100
AcDbEntity
  8
VELA
  6
ACAD_ISO07W100
 48
0.5
100
AcDbLine
 10
6314.822676
 20
2950.57552
 30
0.0
 11
6314.822676
 21
2966.57552
 31
0.0
  0
LINE
  5
2966
100
AcDbEntity
  8
VELA
  6
ACAD_ISO07W100
 48
0.5
100
AcDbLine
 10
6326.822676
 20
2966.57552
 30
0.0
 11
6326.822676
 21
2950.57552
 31
0.0
  0
LINE
  5
2967
100
AcDbEntity
  8
VELA
100
AcDbLine
 10
6338.322676
 20
2966.57552
 30
0.0
 11
6363.322676
 21
2950.57552
 31
0.0
  0
DIMENSION
  5
29F3
100
AcDbEntity
  8
BRIDAS
 62
     8
100
AcDbDimension
  2
*D6
 10
6222.059199
 20
3442.330562
 30
0.0
 11
6082.448546
 21
3598.223974
 31
0.0
 12
3420.013033
 22
2504.949238
 32
0.0
 70
    33
  3
STANDARD
100
AcDbAlignedDimension
 13
5969.867821
 23
3780.918404
 33
0.0
 14
6264.178908
 24
3484.093566
 34
0.0
  0
LINE
  5
29F4
100
AcDbEntity
  8
BRIDAS
100
AcDbLine
 10
5969.867821
 20
3780.918404
 30
0.0
 11
6264.178908
 21
3484.093566
 31
0.0
  0
LINE
  5
388C
100
AcDbEntity
  8
VELA
100
AcDbLine
 10
4082.743058
 20
2820.760377
 30
0.0
 11
4045.283008
 21
2779.138099
 31
0.0
  0
LINE
  5
388D
100
AcDbEntity
  8
VELA
100
AcDbLine
 10
3632.743058
 20
3166.760377
 30
0.0
 11
3595.283008
 21
3125.138099
 31
0.0
  0
ARC
  5
38C5
100
AcDbEntity
  8
VELAMARGEN
100
AcDbCircle
 10
-2100.430702
 20
-2791.758807
 30
0.0
 40
4135.5289
100
AcDbArc
 50
56.969015
 51
58.608619
  0
ARC
  5
38C6
100
AcDbEntity
  8
VELA
100
AcDbCircle
 10
-2099.96
 20
-2791.0
 30
0.0
 40
4127.636158
100
AcDbArc
 50
56.968742
 51
58.609403
  0
POINT
  5
38C7
100
AcDbEntity
  8
PUNTOS
100
AcDbPoint
 10
100.0
 20
701.5
 30
0.0
  0
LINE
  5
38C8
100
AcDbEntity
  8
CUADRICULA
 62
     7
100
AcDbLine
 10
0.0
 20
800.0
 30
0.0
 11
1000.0
 21
800.0
 31
0.0
  0
LINE
  5
38C9
100
AcDbEntity
  8
CUADRICULA
 62
     7
100
AcDbLine
 10
0.0
 20
750.0
 30
0.0
 11
1000.0
 21
750.0
 31
0.0
  0
LINE
  5
38CA
100
AcDbEntity
  8
CUADRICULA
 62
     7
100
AcDbLine
 10
0.0
 20
700.0
 30
0.0
 11
1000.0
 21
700.0
 31
0.0
  0
LINE
  5
38CB
100
AcDbEntity
  8
CUADRICULA
 62
     7
100
AcDbLine
 10
0.0
 20
650.0
 30
0.0
 11
1000.0
 21
650.0
 31
0.0
  0
LINE
  5
38CC
100
AcDbEntity
  8
CUADRICULA
 62
     7
100
AcDbLine
 10
0.0
 20
600.0
 30
0.0
 11
1000.0
 21
600.0
 31
0.0
  0
LINE
  5
38CD
100
AcDbEntity
  8
CUADRICULA
 62
     7
100
AcDbLine
 10
0.0
 20
550.0
 30
0.0
 11
1000.0
 21
550.0
 31
0.0
  0
ARC
  5
38CE
100
AcDbEntity
  8
VELAMARGEN
100
AcDbCircle
 10
410.087134
 20
-239.53699
 30
0.0
 40
463.396086
100
AcDbArc
 50
123.689184
 51
140.2844
  0
ARC
  5
38CF
100
AcDbEntity
  8
VELA
100
AcDbCircle
 10
410.344231
 20
-239.826923
 30
0.0
 40
468.768758
100
AcDbArc
 50
123.73681
 51
140.237615
  0
POINT
  5
38D0
100
AcDbEntity
  8
PUNTOS
100
AcDbPoint
 10
100.0
 20
111.5
 30
0.0
  0
DIMENSION
  5
38D1
100
AcDbEntity
  8
VELACOTAS
 62
     8
100
AcDbDimension
  2
*D29
 10
128.827234
 20
0.0
 30
0.0
 11
118.202234
 21
252.0
 31
0.0
 12
-3420.013033
 22
-2504.949238
 32
0.0
 70
    32
  3
STANDARD
100
AcDbAlignedDimension
 13
195.0
 23
504.0
 33
0.0
 14
195.0
 24
0.0
 34
0.0
 50
90.0
100
AcDbRotatedDimension
  0
DIMENSION
  5
38D2
100
AcDbEntity
  8
VELACOTAS
 62
     8
100
AcDbDimension
  2
*D26
 10
908.0
 20
-52.005017
 30
0.0
 11
454.0
 21
-41.380017
 31
0.0
 12
-3420.013033
 22
-2504.949238
 32
0.0
 70
    32
  3
STANDARD
100
AcDbAlignedDimension
 13
0.0
 23
0.0
 33
0.0
 14
908.0
 24
42.5
 34
0.0
100
AcDbRotatedDimension
  0
DIMENSION
  5
38D3
100
AcDbEntity
  8
VELACOTAS
 62
     8
100
AcDbDimension
  2
*D27
 10
0.0
 20
319.889993
 30
0.0
 11
143.75
 21
330.514993
 31
0.0
 12
-3420.013033
 22
-2504.949238
 32
0.0
 70
    32
  3
STANDARD
100
AcDbAlignedDimension
 13
287.5
 23
371.0
 33
0.0
 14
0.0
 24
371.0
 34
0.0
100
AcDbRotatedDimension
  0
LINE
  5
38D4
100
AcDbEntity
  8
CUADRICULA
 62
     7
100
AcDbLine
 10
0.0
 20
500.0
 30
0.0
 11
1000.0
 21
500.0
 31
0.0
  0
LINE
  5
38D5
100
AcDbEntity
  8
CUADRICULA
 62
     7
100
AcDbLine
 10
0.0
 20
450.0
 30
0.0
 11
1000.0
 21
450.0
 31
0.0
  0
LINE
  5
38D6
100
AcDbEntity
  8
CUADRICULA
 62
     7
100
AcDbLine
 10
0.0
 20
400.0
 30
0.0
 11
1000.0
 21
400.0
 31
0.0
  0
LINE
  5
38D7
100
AcDbEntity
  8
CUADRICULA
 62
     7
100
AcDbLine
 10
0.0
 20
350.0
 30
0.0
 11
1000.0
 21
350.0
 31
0.0
  0
LINE
  5
38D8
100
AcDbEntity
  8
CUADRICULA
 62
     7
100
AcDbLine
 10
0.0
 20
300.0
 30
0.0
 11
1000.0
 21
300.0
 31
0.0
  0
LINE
  5
38D9
100
AcDbEntity
  8
CUADRICULA
 62
     7
100
AcDbLine
 10
0.0
 20
250.0
 30
0.0
 11
1000.0
 21
250.0
 31
0.0
  0
LINE
  5
38DA
100
AcDbEntity
  8
CUADRICULA
 62
     7
100
AcDbLine
 10
0.0
 20
200.0
 30
0.0
 11
1000.0
 21
200.0
 31
0.0
  0
LINE
  5
38DB
100
AcDbEntity
  8
CUADRICULA
 62
     7
100
AcDbLine
 10
0.0
 20
150.0
 30
0.0
 11
1000.0
 21
150.0
 31
0.0
  0
LINE
  5
38DC
100
AcDbEntity
  8
CUADRICULA
 62
     7
100
AcDbLine
 10
0.0
 20
100.0
 30
0.0
 11
1000.0
 21
100.0
 31
0.0
  0
LINE
  5
38DD
100
AcDbEntity
  8
CUADRICULA
 62
     7
100
AcDbLine
 10
0.0
 20
50.0
 30
0.0
 11
1000.0
 21
50.0
 31
0.0
  0
LINE
  5
38DE
100
AcDbEntity
  8
CUADRICULA
 62
     7
100
AcDbLine
 10
0.0
 20
0.0
 30
0.0
 11
1000.0
 21
0.0
 31
0.0
  0
DIMENSION
  5
38DF
100
AcDbEntity
  8
VELACOTAS
 62
     8
100
AcDbDimension
  2
*D31
 10
0.0
 20
563.94609
 30
0.0
 11
97.5
 21
574.57109
 31
0.0
 12
-3420.013033
 22
-2504.949238
 32
0.0
 70
    32
  3
STANDARD
100
AcDbAlignedDimension
 13
195.0
 23
504.0
 33
0.0
 14
0.0
 24
504.0
 34
0.0
100
AcDbRotatedDimension
  0
LINE
  5
38E0
100
AcDbEntity
  8
VELA
100
AcDbLine
 10
25.0
 20
750.0
 30
0.0
 11
50.0
 21
732.5
 31
0.0
  0
ARC
  5
38E1
100
AcDbEntity
  8
VELAMARGEN
100
AcDbCircle
 10
-947.603487
 20
-664.619183
 30
0.0
 40
1723.713154
100
AcDbArc
 50
54.486655
 51
56.00572
  0
POINT
  5
38E2
100
AcDbEntity
  8
PUNTOS
100
AcDbPoint
 10
25.0
 20
750.0
 30
0.0
  0
POINT
  5
38E3
100
AcDbEntity
  8
PUNTOS
100
AcDbPoint
 10
14.0
 20
757.5
 30
0.0
  0
POINT
  5
38E4
100
AcDbEntity
  8
PUNTOS
100
AcDbPoint
 10
50.0
 20
732.5
 30
0.0
  0
DIMENSION
  5
38E5
100
AcDbEntity
  8
VELACOTAS
 62
     8
100
AcDbDimension
  2
*D32
 10
-53.531919
 20
757.5
 30
0.0
 11
-64.156919
 21
838.958333
 31
0.0
 12
-3420.013033
 22
-2504.949238
 32
0.0
 70
    32
  3
STANDARD
100
AcDbAlignedDimension
 13
0.0
 23
623.0
 33
0.0
 14
0.0
 24
757.5
 34
0.0
 50
90.0
100
AcDbRotatedDimension
  0
LINE
  5
38E6
100
AcDbEntity
  8
VELAMARGEN
100
AcDbLine
 10
-6.0
 20
-5.0
 30
0.0
 11
-6.0
 21
764.5
 31
0.0
  0
LINE
  5
38E7
100
AcDbEntity
  8
VELA
100
AcDbLine
 10
0.0
 20
757.5
 30
0.0
 11
0.0
 21
0.0
 31
0.0
  0
LINE
  5
38E8
100
AcDbEntity
  8
CUADRICULA
 62
     7
100
AcDbLine
 10
100.0
 20
0.0
 30
0.0
 11
100.0
 21
822.82314
 31
0.0
  0
LINE
  5
38E9
100
AcDbEntity
  8
CUADRICULA
 62
     7
100
AcDbLine
 10
50.0
 20
0.0
 30
0.0
 11
50.0
 21
822.82314
 31
0.0
  0
LINE
  5
38EA
100
AcDbEntity
  8
CUADRICULA
 62
     7
100
AcDbLine
 10
0.0
 20
0.0
 30
0.0
 11
0.0
 21
822.82314
 31
0.0
  0
ARC
  5
38EB
100
AcDbEntity
  8
VELA
100
AcDbCircle
 10
425.403246
 20
-254.447327
 30
0.0
 40
489.6986
100
AcDbArc
 50
131.643748
 51
148.694585
  0
DIMENSION
  5
38EC
100
AcDbEntity
  8
VELACOTAS
 62
     8
100
AcDbDimension
  2
*D30
 10
-52.698586
 20
223.0
 30
0.0
 11
-63.323586
 21
111.5
 31
0.0
 12
-3420.013033
 22
-2504.949238
 32
0.0
 70
    32
  3
STANDARD
100
AcDbAlignedDimension
 13
0.0
 23
0.0
 33
0.0
 14
0.0
 24
223.0
 34
0.0
 50
90.0
100
AcDbRotatedDimension
  0
POINT
  5
38ED
100
AcDbEntity
  8
PUNTOS
100
AcDbPoint
 10
7.0
 20
0.0
 30
0.0
  0
POINT
  5
38EE
100
AcDbEntity
  8
PUNTOS
100
AcDbPoint
 10
0.0
 20
0.0
 30
0.0
  0
POINT
  5
38EF
100
AcDbEntity
  8
PUNTOS
100
AcDbPoint
 10
50.0
 20
60.0
 30
0.0
  0
ARC
  5
38F0
100
AcDbEntity
  8
VELAMARGEN
100
AcDbCircle
 10
426.091582
 20
-254.865091
 30
0.0
 40
485.503946
100
AcDbArc
 50
140.027849
 51
149.02587
  0
LINE
  5
38F1
100
AcDbEntity
  8
VELAMARGEN
100
AcDbLine
 10
9.820615
 20
-5.0
 30
0.0
 11
7.0
 21
-5.0
 31
0.0
  0
LINE
  5
38F2
100
AcDbEntity
  8
VELA
100
AcDbLine
 10
7.0
 20
0.0
 30
0.0
 11
0.0
 21
0.0
 31
0.0
  0
LINE
  5
38F3
100
AcDbEntity
  8
VELAMARGEN
100
AcDbLine
 10
7.0
 20
-5.0
 30
0.0
 11
-6.0
 21
-5.0
 31
0.0
  0
DIMENSION
  5
38F4
100
AcDbEntity
  8
VELACOTAS
 62
     8
100
AcDbDimension
  2
*D28
 10
-53.115252
 20
623.0
 30
0.0
 11
-63.740252
 21
423.0
 31
0.0
 12
-3420.013033
 22
-2504.949238
 32
0.0
 70
    32
  3
STANDARD
100
AcDbAlignedDimension
 13
0.0
 23
223.0
 33
0.0
 14
0.0
 24
623.0
 34
0.0
 50
90.0
100
AcDbRotatedDimension
  0
POINT
  5
38F5
100
AcDbEntity
  8
PUNTOS
 62
     1
100
AcDbPoint
 10
0.0
 20
223.0
 30
0.0
  0
POINT
  5
38F6
100
AcDbEntity
  8
PUNTOS
 62
     1
100
AcDbPoint
 10
0.0
 20
623.0
 30
0.0
  0
LINE
  5
38F7
100
AcDbEntity
  8
VELA
100
AcDbLine
 10
14.0
 20
757.5
 30
0.0
 11
0.0
 21
757.5
 31
0.0
  0
LINE
  5
38F8
100
AcDbEntity
  8
VELA
100
AcDbLine
 10
16.142019
 20
764.5
 30
0.0
 11
-6.0
 21
764.5
 31
0.0
  0
LINE
  5
38F9
100
AcDbEntity
  8
VELA
100
AcDbLine
 10
14.0
 20
757.5
 30
0.0
 11
25.0
 21
750.0
 31
0.0
  0
LINE
  5
38FA
100
AcDbEntity
  8
CUADRICULA
 62
     7
100
AcDbLine
 10
1000.0
 20
0.0
 30
0.0
 11
1000.0
 21
822.82314
 31
0.0
  0
LINE
  5
38FB
100
AcDbEntity
  8
CUADRICULA
 62
     7
100
AcDbLine
 10
950.0
 20
0.0
 30
0.0
 11
950.0
 21
822.82314
 31
0.0
  0
LINE
  5
38FC
100
AcDbEntity
  8
CUADRICULA
 62
     7
100
AcDbLine
 10
900.0
 20
0.0
 30
0.0
 11
900.0
 21
822.82314
 31
0.0
  0
LINE
  5
38FD
100
AcDbEntity
  8
CUADRICULA
 62
     7
100
AcDbLine
 10
850.0
 20
0.0
 30
0.0
 11
850.0
 21
822.82314
 31
0.0
  0
LINE
  5
38FE
100
AcDbEntity
  8
CUADRICULA
 62
     7
100
AcDbLine
 10
800.0
 20
0.0
 30
0.0
 11
800.0
 21
822.82314
 31
0.0
  0
LINE
  5
38FF
100
AcDbEntity
  8
CUADRICULA
 62
     7
100
AcDbLine
 10
750.0
 20
0.0
 30
0.0
 11
750.0
 21
822.82314
 31
0.0
  0
LINE
  5
3900
100
AcDbEntity
  8
CUADRICULA
 62
     7
100
AcDbLine
 10
700.0
 20
0.0
 30
0.0
 11
700.0
 21
822.82314
 31
0.0
  0
LINE
  5
3901
100
AcDbEntity
  8
CUADRICULA
 62
     7
100
AcDbLine
 10
650.0
 20
0.0
 30
0.0
 11
650.0
 21
822.82314
 31
0.0
  0
LINE
  5
3902
100
AcDbEntity
  8
CUADRICULA
 62
     7
100
AcDbLine
 10
600.0
 20
0.0
 30
0.0
 11
600.0
 21
822.82314
 31
0.0
  0
LINE
  5
3903
100
AcDbEntity
  8
CUADRICULA
 62
     7
100
AcDbLine
 10
550.0
 20
0.0
 30
0.0
 11
550.0
 21
822.82314
 31
0.0
  0
LINE
  5
3904
100
AcDbEntity
  8
CUADRICULA
 62
     7
100
AcDbLine
 10
500.0
 20
0.0
 30
0.0
 11
500.0
 21
822.82314
 31
0.0
  0
LINE
  5
3905
100
AcDbEntity
  8
CUADRICULA
 62
     7
100
AcDbLine
 10
450.0
 20
0.0
 30
0.0
 11
450.0
 21
822.82314
 31
0.0
  0
LINE
  5
3906
100
AcDbEntity
  8
CUADRICULA
 62
     7
100
AcDbLine
 10
400.0
 20
0.0
 30
0.0
 11
400.0
 21
822.82314
 31
0.0
  0
LINE
  5
3907
100
AcDbEntity
  8
CUADRICULA
 62
     7
100
AcDbLine
 10
350.0
 20
0.0
 30
0.0
 11
350.0
 21
822.82314
 31
0.0
  0
LINE
  5
3908
100
AcDbEntity
  8
CUADRICULA
 62
     7
100
AcDbLine
 10
300.0
 20
0.0
 30
0.0
 11
300.0
 21
822.82314
 31
0.0
  0
LINE
  5
3909
100
AcDbEntity
  8
CUADRICULA
 62
     7
100
AcDbLine
 10
250.0
 20
0.0
 30
0.0
 11
250.0
 21
822.82314
 31
0.0
  0
LINE
  5
390A
100
AcDbEntity
  8
CUADRICULA
 62
     7
100
AcDbLine
 10
200.0
 20
0.0
 30
0.0
 11
200.0
 21
822.82314
 31
0.0
  0
LINE
  5
390B
100
AcDbEntity
  8
CUADRICULA
 62
     7
100
AcDbLine
 10
150.0
 20
0.0
 30
0.0
 11
150.0
 21
822.82314
 31
0.0
  0
POINT
  5
390C
100
AcDbEntity
  8
PUNTOS
100
AcDbPoint
 10
850.0
 20
100.0
 30
0.0
  0
POINT
  5
390D
100
AcDbEntity
  8
PUNTOS
100
AcDbPoint
 10
800.0
 20
105.0
 30
0.0
  0
LINE
  5
390E
100
AcDbEntity
  8
VELA
100
AcDbLine
 10
800.0
 20
105.0
 30
0.0
 11
750.0
 21
133.5
 31
0.0
  0
POINT
  5
390F
100
AcDbEntity
  8
PUNTOS
100
AcDbPoint
 10
750.0
 20
133.5
 30
0.0
  0
ARC
  5
3910
100
AcDbEntity
  8
VELAMARGEN
100
AcDbCircle
 10
-5.740084
 20
-1250.405333
 30
0.0
 40
1571.814293
100
AcDbArc
 50
57.128833
 51
61.356255
  0
ARC
  5
3911
100
AcDbEntity
  8
VELA
100
AcDbCircle
 10
-5.273
 20
-1249.65
 30
0.0
 40
1575.925514
100
AcDbArc
 50
57.131582
 51
61.363127
  0
LINE
  5
3912
100
AcDbEntity
  8
VELA
100
AcDbLine
 10
800.0
 20
149.0
 30
0.0
 11
850.0
 21
100.0
 31
0.0
  0
ARC
  5
3913
100
AcDbEntity
  8
VELAMARGEN
100
AcDbCircle
 10
-6259.812574
 20
-7104.900997
 30
0.0
 40
10129.254314
100
AcDbArc
 50
45.380727
 51
46.561248
  0
DIMENSION
  5
3914
100
AcDbEntity
  8
VELACOTAS
 62
     8
100
AcDbDimension
  2
*D33
 10
333.625596
 20
0.0
 30
0.0
 11
323.000596
 21
185.5
 31
0.0
 12
-3420.013033
 22
-2504.949238
 32
0.0
 70
    32
  3
STANDARD
100
AcDbAlignedDimension
 13
287.5
 23
371.0
 33
0.0
 14
287.5
 24
0.0
 34
0.0
 50
90.0
100
AcDbRotatedDimension
  0
LINE
  5
3915
100
AcDbEntity
  8
VELA
100
AcDbLine
 10
850.0
 20
74.0
 30
0.0
 11
800.0
 21
105.0
 31
0.0
  0
LINE
  5
3916
100
AcDbEntity
  8
VELAMARGEN
100
AcDbLine
 10
917.223441
 20
42.818146
 30
0.0
 11
902.832644
 21
32.87979
 31
0.0
  0
ARC
  5
3917
100
AcDbEntity
  8
VELAMARGEN
100
AcDbCircle
 10
713.306607
 20
-163.008792
 30
0.0
 40
268.604953
100
AcDbArc
 50
46.934524
 51
60.060088
  0
POINT
  5
3918
100
AcDbEntity
  8
PUNTOS
100
AcDbPoint
 10
900.0
 20
51.0
 30
0.0
  0
POINT
  5
3919
100
AcDbEntity
  8
PUNTOS
100
AcDbPoint
 10
908.0
 20
42.5
 30
0.0
  0
POINT
  5
391A
100
AcDbEntity
  8
PUNTOS
100
AcDbPoint
 10
900.0
 20
37.0
 30
0.0
  0
POINT
  5
391B
100
AcDbEntity
  8
PUNTOS
100
AcDbPoint
 10
885.0
 20
50.0
 30
0.0
  0
LINE
  5
391C
100
AcDbEntity
  8
VELAMARGEN
100
AcDbLine
 10
902.832644
 20
32.87979
 30
0.0
 11
899.684251
 21
30.71527
 31
0.0
  0
LINE
  5
391D
100
AcDbEntity
  8
VELAMARGEN
100
AcDbLine
 10
896.719115
 20
33.226965
 30
0.0
 11
899.684251
 21
30.71527
 31
0.0
  0
ARC
  5
391E
100
AcDbEntity
  8
VELA
100
AcDbCircle
 10
712.005263
 20
-164.763158
 30
0.0
 40
275.772357
100
AcDbArc
 50
47.023165
 51
59.973953
  0
LINE
  5
391F
100
AcDbEntity
  8
VELA
100
AcDbLine
 10
850.0
 20
100.0
 30
0.0
 11
900.0
 21
51.0
 31
0.0
  0
ARC
  5
3920
100
AcDbEntity
  8
VELAMARGEN
100
AcDbCircle
 10
179.856182
 20
-633.9163
 30
0.0
 40
1000.83964
100
AcDbArc
 50
42.544818
 51
47.586418
  0
POINT
  5
3921
100
AcDbEntity
  8
PUNTOS
100
AcDbPoint
 10
850.0
 20
74.0
 30
0.0
  0
LINE
  5
3922
100
AcDbEntity
  8
VELA
100
AcDbLine
 10
908.0
 20
42.5
 30
0.0
 11
900.0
 21
37.0
 31
0.0
  0
LINE
  5
3923
100
AcDbEntity
  8
VELA
100
AcDbLine
 10
900.0
 20
51.0
 30
0.0
 11
908.0
 21
42.5
 31
0.0
  0
POINT
  5
3924
100
AcDbEntity
  8
PUNTOS
100
AcDbPoint
 10
700.0
 20
245.0
 30
0.0
  0
POINT
  5
3925
100
AcDbEntity
  8
PUNTOS
100
AcDbPoint
 10
650.0
 20
290.0
 30
0.0
  0
ARC
  5
3926
100
AcDbEntity
  8
VELAMARGEN
100
AcDbCircle
 10
-1976.028634
 20
-2677.937339
 30
0.0
 40
3969.912619
100
AcDbArc
 50
47.522659
 51
49.454978
  0
LINE
  5
3927
100
AcDbEntity
  8
VELA
100
AcDbLine
 10
650.0
 20
290.0
 30
0.0
 11
700.0
 21
245.0
 31
0.0
  0
POINT
  5
3928
100
AcDbEntity
  8
PUNTOS
100
AcDbPoint
 10
700.0
 20
159.0
 30
0.0
  0
ARC
  5
3929
100
AcDbEntity
  8
VELAMARGEN
100
AcDbCircle
 10
96.516298
 20
-1086.073751
 30
0.0
 40
1378.61986
100
AcDbArc
 50
61.812077
 51
66.402505
  0
ARC
  5
392A
100
AcDbEntity
  8
VELA
100
AcDbCircle
 10
101.219
 20
-1076.85
 30
0.0
 40
1373.267603
100
AcDbArc
 50
61.807463
 51
66.445766
  0
POINT
  5
392B
100
AcDbEntity
  8
PUNTOS
100
AcDbPoint
 10
650.0
 20
182.0
 30
0.0
  0
POINT
  5
392C
100
AcDbEntity
  8
PUNTOS
100
AcDbPoint
 10
450.0
 20
455.0
 30
0.0
  0
LINE
  5
392D
100
AcDbEntity
  8
VELAMARGEN
100
AcDbLine
 10
504.405995
 20
420.939413
 30
0.0
 11
454.339336
 21
460.492738
 31
0.0
  0
LINE
  5
392E
100
AcDbEntity
  8
VELA
100
AcDbLine
 10
450.0
 20
455.0
 30
0.0
 11
500.0
 21
415.5
 31
0.0
  0
POINT
  5
392F
100
AcDbEntity
  8
PUNTOS
100
AcDbPoint
 10
500.0
 20
415.5
 30
0.0
  0
LINE
  5
3930
100
AcDbEntity
  8
VELA
100
AcDbLine
 10
191.716128
 20
501.716104
 30
0.0
 11
284.216128
 21
368.716104
 31
0.0
  0
LINE
  5
3931
100
AcDbEntity
  8
VELA
100
AcDbLine
 10
198.283872
 20
506.283896
 30
0.0
 11
290.783872
 21
373.283896
 31
0.0
  0
LINE
  5
3932
100
AcDbEntity
  8
VELA
100
AcDbLine
 10
195.0
 20
504.0
 30
0.0
 11
287.5
 21
371.0
 31
0.0
  0
LINE
  5
3933
100
AcDbEntity
  8
VELA
100
AcDbLine
 10
400.0
 20
229.0
 30
0.0
 11
350.0
 21
226.0
 31
0.0
  0
ARC
  5
3934
100
AcDbEntity
  8
VELAMARGEN
100
AcDbCircle
 10
425.000446
 20
-613.414982
 30
0.0
 40
837.788032
100
AcDbArc
 50
88.290103
 51
95.068989
  0
ARC
  5
3935
100
AcDbEntity
  8
VELA
100
AcDbCircle
 10
425.0
 20
-605.833333
 30
0.0
 40
835.207576
100
AcDbArc
 50
88.284728
 51
95.151988
  0
POINT
  5
3936
100
AcDbEntity
  8
PUNTOS
100
AcDbPoint
 10
400.0
 20
229.0
 30
0.0
  0
POINT
  5
3937
100
AcDbEntity
  8
PUNTOS
 62
     1
100
AcDbPoint
 10
386.0
 20
231.5
 30
0.0
  0
POINT
  5
3938
100
AcDbEntity
  8
PUNTOS
100
AcDbPoint
 10
250.0
 20
200.0
 30
0.0
  0
ARC
  5
3939
100
AcDbEntity
  8
VELAMARGEN
100
AcDbCircle
 10
415.165298
 20
-229.849477
 30
0.0
 40
455.491309
100
AcDbArc
 50
98.101077
 51
110.999888
  0
ARC
  5
393A
100
AcDbEntity
  8
VELA
100
AcDbCircle
 10
415.266667
 20
-230.333333
 30
0.0
 40
460.977059
100
AcDbArc
 50
98.139477
 51
111.008955
  0
LINE
  5
393B
100
AcDbEntity
  8
VELA
100
AcDbLine
 10
300.0
 20
216.0
 30
0.0
 11
250.0
 21
200.0
 31
0.0
  0
ARC
  5
393C
100
AcDbEntity
  8
VELAMARGEN
100
AcDbCircle
 10
394.290514
 20
-213.605106
 30
0.0
 40
433.060764
100
AcDbArc
 50
109.191402
 51
123.941398
  0
POINT
  5
393D
100
AcDbEntity
  8
PUNTOS
100
AcDbPoint
 10
200.0
 20
179.0
 30
0.0
  0
ARC
  5
393E
100
AcDbEntity
  8
VELA
100
AcDbCircle
 10
394.3125
 20
-213.625
 30
0.0
 40
438.07732
100
AcDbArc
 50
109.233724
 51
123.896379
  0
POINT
  5
393F
100
AcDbEntity
  8
PUNTOS
100
AcDbPoint
 10
150.0
 20
150.0
 30
0.0
  0
POINT
  5
3940
100
AcDbEntity
  8
PUNTOS
100
AcDbPoint
 10
300.0
 20
216.0
 30
0.0
  0
LINE
  5
3941
100
AcDbEntity
  8
VELA
100
AcDbLine
 10
350.0
 20
226.0
 30
0.0
 11
300.0
 21
216.0
 31
0.0
  0
POINT
  5
3942
100
AcDbEntity
  8
PUNTOS
100
AcDbPoint
 10
350.0
 20
226.0
 30
0.0
  0
POINT
  5
3943
100
AcDbEntity
  8
PUNTOS
100
AcDbPoint
 10
287.5
 20
371.0
 30
0.0
  0
LINE
  5
3944
100
AcDbEntity
  8
VELA
100
AcDbLine
 10
290.783872
 20
373.283896
 30
0.0
 11
284.216128
 21
368.716104
 31
0.0
  0
POINT
  5
3945
100
AcDbEntity
  8
PUNTOS
 62
     1
100
AcDbPoint
 10
644.0
 20
295.0
 30
0.0
  0
LINE
  5
3946
100
AcDbEntity
  8
VELA
100
AcDbLine
 10
649.828348
 20
176.637022
 30
0.0
 11
649.828348
 21
299.491302
 31
0.0
  0
LINE
  5
3947
100
AcDbEntity
  8
VELA
100
AcDbLine
 10
641.828348
 20
179.612859
 30
0.0
 11
641.828348
 21
306.527609
 31
0.0
  0
ARC
  5
3948
100
AcDbEntity
  8
VELAMARGEN
100
AcDbCircle
 10
371.331443
 20
-635.220285
 30
0.0
 40
862.81406
100
AcDbArc
 50
78.109087
 51
84.768752
  0
ARC
  5
3949
100
AcDbEntity
  8
VELA
100
AcDbCircle
 10
372.3
 20
-629.833333
 30
0.0
 40
862.340991
100
AcDbArc
 50
78.108034
 51
84.830435
  0
LINE
  5
394A
100
AcDbEntity
  8
VELA
100
AcDbLine
 10
550.0
 20
214.0
 30
0.0
 11
500.0
 21
223.0
 31
0.0
  0
POINT
  5
394B
100
AcDbEntity
  8
PUNTOS
100
AcDbPoint
 10
550.0
 20
214.0
 30
0.0
  0
LINE
  5
394C
100
AcDbEntity
  8
VELA
100
AcDbLine
 10
500.0
 20
223.0
 30
0.0
 11
450.0
 21
229.0
 31
0.0
  0
POINT
  5
394D
100
AcDbEntity
  8
PUNTOS
100
AcDbPoint
 10
450.0
 20
229.0
 30
0.0
  0
LINE
  5
394E
100
AcDbEntity
  8
VELA
100
AcDbLine
 10
450.0
 20
229.0
 30
0.0
 11
400.0
 21
229.0
 31
0.0
  0
POINT
  5
394F
100
AcDbEntity
  8
PUNTOS
100
AcDbPoint
 10
500.0
 20
223.0
 30
0.0
  0
POINT
  5
3950
100
AcDbEntity
  8
PUNTOS
100
AcDbPoint
 10
600.0
 20
199.0
 30
0.0
  0
ARC
  5
3951
100
AcDbEntity
  8
VELAMARGEN
100
AcDbCircle
 10
153.660189
 20
-1195.796184
 30
0.0
 40
1459.471886
100
AcDbArc
 50
70.185331
 51
74.278815
  0
ARC
  5
3952
100
AcDbEntity
  8
VELA
100
AcDbCircle
 10
159.2
 20
-1179.5
 30
0.0
 40
1447.26186
100
AcDbArc
 50
70.176539
 51
74.334117
  0
LINE
  5
3953
100
AcDbEntity
  8
VELA
100
AcDbLine
 10
600.0
 20
199.0
 30
0.0
 11
550.0
 21
214.0
 31
0.0
  0
POINT
  5
3954
100
AcDbEntity
  8
PUNTOS
100
AcDbPoint
 10
550.0
 20
375.0
 30
0.0
  0
LINE
  5
3955
100
AcDbEntity
  8
VELA
100
AcDbLine
 10
500.0
 20
415.5
 30
0.0
 11
550.0
 21
375.0
 31
0.0
  0
ARC
  5
3956
100
AcDbEntity
  8
VELAMARGEN
100
AcDbCircle
 10
-2874.255461
 20
-3801.361311
 30
0.0
 40
5407.696056
100
AcDbArc
 50
49.960569
 51
51.3334
  0
POINT
  5
3957
100
AcDbEntity
  8
PUNTOS
100
AcDbPoint
 10
600.0
 20
333.5
 30
0.0
  0
LINE
  5
3958
100
AcDbEntity
  8
VELA
100
AcDbLine
 10
550.0
 20
375.0
 30
0.0
 11
600.0
 21
333.5
 31
0.0
  0
LINE
  5
3959
100
AcDbEntity
  8
VELA
100
AcDbLine
 10
600.0
 20
333.5
 30
0.0
 11
644.0
 21
295.0
 31
0.0
  0
LINE
  5
395A
100
AcDbEntity
  8
VELA
100
AcDbLine
 10
644.0
 20
295.0
 30
0.0
 11
650.0
 21
290.0
 31
0.0
  0
LINE
  5
395B
100
AcDbEntity
  8
VELA
100
AcDbLine
 10
662.730025
 20
315.811139
 30
0.0
 11
625.269975
 21
274.188861
 31
0.0
  0
LINE
  5
395C
100
AcDbEntity
  8
VELAMARGEN
100
AcDbLine
 10
404.235692
 20
498.573053
 30
0.0
 11
354.200013
 21
536.09999
 31
0.0
  0
LINE
  5
395D
100
AcDbEntity
  8
VELA
100
AcDbLine
 10
350.0
 20
530.5
 30
0.0
 11
400.0
 21
493.0
 31
0.0
  0
POINT
  5
395E
100
AcDbEntity
  8
PUNTOS
100
AcDbPoint
 10
400.0
 20
493.0
 30
0.0
  0
POINT
  5
395F
100
AcDbEntity
  8
PUNTOS
100
AcDbPoint
 10
250.0
 20
603.0
 30
0.0
  0
LINE
  5
3960
100
AcDbEntity
  8
VELA
100
AcDbLine
 10
250.0
 20
603.0
 30
0.0
 11
300.0
 21
567.0
 31
0.0
  0
ARC
  5
3961
100
AcDbEntity
  8
VELAMARGEN
100
AcDbCircle
 10
-5226.419002
 20
-7055.859618
 30
0.0
 40
9422.375459
100
AcDbArc
 50
53.681523
 51
54.433437
  0
POINT
  5
3962
100
AcDbEntity
  8
PUNTOS
100
AcDbPoint
 10
300.0
 20
567.0
 30
0.0
  0
LINE
  5
3963
100
AcDbEntity
  8
VELA
100
AcDbLine
 10
198.283872
 20
506.283896
 30
0.0
 11
191.716128
 21
501.716104
 31
0.0
  0
POINT
  5
3964
100
AcDbEntity
  8
PUNTOS
100
AcDbPoint
 10
195.0
 20
504.0
 30
0.0
  0
POINT
  5
3965
100
AcDbEntity
  8
PUNTOS
100
AcDbPoint
 10
350.0
 20
530.5
 30
0.0
  0
LINE
  5
3966
100
AcDbEntity
  8
VELA
100
AcDbLine
 10
300.0
 20
567.0
 30
0.0
 11
350.0
 21
530.5
 31
0.0
  0
POINT
  5
3967
100
AcDbEntity
  8
PUNTOS
100
AcDbPoint
 10
150.0
 20
669.5
 30
0.0
  0
LINE
  5
3968
100
AcDbEntity
  8
VELA
100
AcDbLine
 10
150.0
 20
669.5
 30
0.0
 11
194.0
 21
641.0
 31
0.0
  0
ARC
  5
3969
100
AcDbEntity
  8
VELAMARGEN
100
AcDbCircle
 10
-1397.544411
 20
-1766.048116
 30
0.0
 40
2892.61712
100
AcDbArc
 50
55.181214
 51
57.566735
  0
POINT
  5
396A
100
AcDbEntity
  8
PUNTOS
 62
     1
100
AcDbPoint
 10
194.0
 20
641.0
 30
0.0
  0
POINT
  5
396B
100
AcDbEntity
  8
PUNTOS
100
AcDbPoint
 10
200.0
 20
637.0
 30
0.0
  0
LINE
  5
396C
100
AcDbEntity
  8
VELA
100
AcDbLine
 10
212.730025
 20
661.811139
 30
0.0
 11
175.269975
 21
620.188861
 31
0.0
  0
LINE
  5
396D
100
AcDbEntity
  8
VELA
100
AcDbLine
 10
194.0
 20
641.0
 30
0.0
 11
250.0
 21
603.0
 31
0.0
  0
LINE
  5
396E
100
AcDbEntity
  8
VELA
100
AcDbLine
 10
400.0
 20
493.0
 30
0.0
 11
450.0
 21
455.0
 31
0.0
  0
LINE
  5
396F
100
AcDbEntity
  8
VELAMARGEN
100
AcDbLine
 10
454.339336
 20
460.492738
 30
0.0
 11
404.235692
 21
498.573053
 31
0.0
  0
POINT
  5
3970
100
AcDbEntity
  8
PUNTOS
100
AcDbPoint
 10
800.0
 20
149.0
 30
0.0
  0
LINE
  5
3971
100
AcDbEntity
  8
VELA
100
AcDbLine
 10
750.0
 20
198.0
 30
0.0
 11
800.0
 21
149.0
 31
0.0
  0
POINT
  5
3972
100
AcDbEntity
  8
PUNTOS
100
AcDbPoint
 10
750.0
 20
198.0
 30
0.0
  0
LINE
  5
3973
100
AcDbEntity
  8
VELA
100
AcDbLine
 10
750.0
 20
133.5
 30
0.0
 11
700.0
 21
159.0
 31
0.0
  0
LINE
  5
3974
100
AcDbEntity
  8
VELA
100
AcDbLine
 10
700.0
 20
245.0
 30
0.0
 11
750.0
 21
198.0
 31
0.0
  0
ENDSEC
  0
SECTION
  2
OBJECTS
  0
DICTIONARY
  5
C
100
AcDbDictionary
  3
ACAD_GROUP
350
D
  3
ACAD_MLINESTYLE
350
1B
  3
ACDBVARIABLEDICTIONARY
350
770
  0
DICTIONARY
  5
D
102
{ACAD_REACTORS
330
C
102
}
100
AcDbDictionary
  0
DICTIONARY
  5
1B
102
{ACAD_REACTORS
330
C
102
}
100
AcDbDictionary
  3
STANDARD
350
1C
  0
DICTIONARY
  5
770
102
{ACAD_REACTORS
330
C
102
}
100
AcDbDictionary
  3
SORTENTS
350
771
  0
MLINESTYLE
  5
1C
102
{ACAD_REACTORS
330
1B
102
}
100
AcDbMlineStyle
  2
STANDARD
 70
     0
  3

 62
   256
 51
90.0
 52
90.0
 71
     2
 49
0.5
 62
   256
  6
BYLAYER
 49
-0.5
 62
   256
  6
BYLAYER
  0
ACAD_ZOMBIE_OBJECT
  5
771
102
{ACAD_REACTORS
330
770
102
}
100
AcDbZombieObject
 90
      499
 91
      501
 93
       34
310
00408E4D80
 94
        0
  0
ENDSEC
  0
EOF
